HD-AREA wünscht Euch eine besinnliche Weihnachtszeit ;)

DNS SERVER AENDERNum der staatlichen Zensur zu umgehen. Sollten wir von eurem Provider geseprrt werden, nutzt den TOR BROWSER oder ändert euren DNS SERVER.

Filmwünsche können bei uns im Forum abgegeben werden

Wir Speichern Nicht




 
 
 
Top Releases
The.Equalizer.2.2018.MULTi.C...
The.Equalizer.2.2018.MULTi.C...
BlacKkKlansman.2018.German.D...
Espen.und.die.Legende.vom.Be...
Espen.und.die.Legende.vom.Be...
Flatliners.2017.German.AC3.D...
The.Last.Movie.Star.2017.Ger...
The.Equalizer.2.2018.German....
The.Last.Movie.Star.2017.Ger...
BlacKkKlansman.2018.MULTi.CO...

Cinedubs
Night.School.2018.GERMAN.DL....
Night.School.2018.GERMAN.DL....
Gaensehaut.2.Gruseliges.Hall...
Gaensehaut.2.Gruseliges.Hall...
Unknown.User.2.Dark.Web.Germ...
Unknown.User.2.Dark.Web.Germ...
Peppermint.Angel.of.Vengeanc...
Peppermint.Angel.of.Vengeanc...
Venom.German.DL.AC3.Dubbed.1...
Venom.2018.German.AC3D.5.1.D...

Neuerscheinungen 2017-18
Mara.2018.German.DL.1080p.Bl...
Future.World.2018.German.AC3...
Mara.2018.MULTi.COMPLETE.BLU...
Gotti.A.Real.American.Godfat...
Mandy.the.Haunted.Doll.2018....
Mandy.the.Haunted.Doll.2018....
Mandy.the.Haunted.Doll.2018....
Mandy.the.Haunted.Doll.Mandy...
Wildling.2018.German.DL.1080...
Wildling.2018.German.720p.Bl...

XXX
FatManFuck.17.10.08.Abbie.XX...
FatManFuck.17.10.03.Peaches....
MatureNL.18.11.30.Glynis.Ire...
Nerd.Pervert.Vol.31.XXX.1080...
MofosBSides.18.12.01.Monica....
MilfHunter.18.12.03.Victoria...
MatureNL.18.11.16.Danica.And...
MetArtX.18.12.01.Sybil.A.Lov...
MatureNL.18.11.23.Amy.Elizab...
MyFriendsHotMom.18.12.02.Van...
MyFamilyPies.18.12.03.Haley....
MonstersOfCock.18.12.02.Kali...
MatureNL.18.11.29.Calina.And...
MetArtX.18.12.03.Lena.Anders...
GroupSexGames.18.12.02.Lulu....
MatureNL.18.11.30.Elizabeth....
FatManFuck.17.10.15.Amber.XX...
Manuels.Maximum.Penetration....
Manuels.Maximum.Penetration....
Military.Minxes.XXX.720p.WEB...

3D
Gans.im.Glueck.3D.2018.MULTi...
The.Art.of.Flight.3D.2011.Ge...
The.End.Of.The.World.3D.2010...
The.First.Avenger.Civil.War....
Die.Unglaublichen.2.2018.3D....
Skyscraper.3D.2018.MULTi.COM...
Ant-Man.And.The.Wasp.3D.2018...
Ant.Man.and.the.Wasp.3D.2018...
Die.Unglaublichen.2.3D.2018....
Die.Unglaublichen.2.2018.3D....
Die.Unglaublichen.2.2018.3D....
Sharknado.6.The.Last.One.3D....
Deep.Kleine.Helden.der.Tiefs...
Deep.3D.2017.MULTI.COMPLETE....
Detective.Dee.und.die.Legend...

Old_Stuff
Akte.X.S04.German.DTS.DL.108...
Akte.X.S03.German.DTS.DL.108...
Dunkirk.1958.COMPLETE.BLURAY...
Das.Wunder.von.Manhattan.199...
The.Amazing.Spiderman.2.Rise...
Rise.of.the.Predator.2014.Ge...
Detective.Dee.und.das.Geheim...
Detective.Dee.Und.Der.Fluch....
Ghost.Rider.Spirit.of.Vengea...
Species.IV.Das.Erwachen.2007...
Species.IV.Das.Erwachen.2007...
Hotel.Transsilvanien.2012.Ge...
The.Dead.2010.German.DL.1080...
The.Dead.2.India.2013.German...
Britney.Spears.Live.The.Femm...

Filme
Red.Tears.Uncut.2011.German....
Red.Tails.2012.German.DL.108...
Mara.2018.German.DTS.DL.1080...
Marrakesch.1966.German.AC3D....
BlacKkKlansman.2018.German.D...
Santa.Claus.mit.Muckis.-.San...
Kommissar.Maigret.sieht.Rot....
Chloe.rettet.die.Welt.2015.G...
Mission.Impossible.Fallout.2...
Die.Conners.S01.German.DD51....
Die.Conners.S01.German.DD51....
Shut.Eye.S01.German.DD20.DL....
Shut.Eye.S01.German.DD20.DL....
Vanilla.Sky.2001.German.DL.A...
Midnight.Run.1988.German.AC3...
Vikings.S05.GERMAN.1080p.Web...
Vikings.S05.GERMAN.720p.WebH...
The.Gifted.S02.GERMAN.DL.108...
The.Gifted.S02.GERMAN.720p.H...
Riverdale.US.S03.GERMAN.DL.1...
Riverdale.US.S03.GERMAN.DL.7...
Krypton.S01.COMPLETE.GERMAN....
Get.Shorty.S02.German.DD51.S...
Get.Shorty.S02.German.DD51.S...

 
 
MacGyver.S02.GERMAN.DUBBED.DL.720p.HDTV.h264-euHD

Jahr: 2018
Genre: Action
Sprache: Deutsch AC3 | Englisch AC3
Laufzeit: 41min je Folge
Bitrate: 6000 Kbps
Format: MKV
Größe: 2 GB je Folge
Release:

Beschreibung:

„MacGyver“ ist eine Wiederbelebung der gleichnamigen Kultserie aus den 1980er-Jahren mit einem Hauptcharakter in den Zwanzigern, kurz nachdem er von seinem späteren Arbeitgeber angeworben wurde. Wie wurde er zu dem begabten Bombenbastler, als der er später galt? Lucas Till ist in der Rolle des jungen Helden zu sehen.

 

 

enthaltene Folgen:

MacGyver.S02E01.Von.den.Toten.auferstanden.GERMAN.DUBBED.DL.720p.HDTV.h264-euHD

MacGyver.S02E02.Solomission.fuer.Artemis.GERMAN.DUBBED.DL.720p.WebHD.h264-euHD

MacGyver.S02E03.Die.rote.Faust.GERMAN.DUBBED.DL.720p.WebHD.h264-euHD 

MacGyver.S02E04.Vaeter.und.Soehne.GERMAN.DUBBED.DL.720p.WebHD.h264-euHD

MacGyver.S02E05.Geisterinsel.GERMAN.DUBBED.DL.720p.WebHD.h264-euHD 

MacGyver.S02E06.Hoellenfeuer.GERMAN.DUBBED.DL.720p.WebHD.h264-euHD

MacGyver.S02E07.Herz.und.Helden.GERMAN.DUBBED.DL.720p.WebHD.h264-euHD

MacGyver.S02E08.Der.Turm.der.blauen.Pferde.GERMAN.DUBBED.DL.720p.WebHD.h264-euHD 

MacGyver.S02E09.Die.Regeln.des.Spiels.GERMAN.DUBBED.DL.720p.WebHD.h264-euHD

MacGyver.S02E10.Verloren.im.Eis.GERMAN.DUBBED.DL.720p.WebHD.h264-euHD 

MacGyver.S02E11.Unter.Mordverdacht.GERMAN.DUBBED.DL.720p.WebHD.h264-euHD

MacGyver.S02E12.Wiedersehen.mit.einem.Geist.GERMAN.DUBBED.DL.720p.WebHD.h264-euHD 

MacGyver.S02E13.Angriffsziel.Pentagon.GERMAN.DUBBED.DL.720p.WebHD.h264-euHD

MacGyver.S02E14.Feuer.und.Flamme.GERMAN.DUBBED.DL.720p.WebHD.h264-euHD 

MacGyver.S02E15.Gefaehrliche.zweite.Chancen.GERMAN.DUBBED.DL.720p.WebHD.h264-euHD

MacGyver.S02E16.Flitterwochen.GERMAN.DUBBED.DL.720p.WebHD.h264-euHD 

MacGyver.S02E17.Atomarer.Ausflug.GERMAN.DUBBED.DL.720p.WebHD.h264-euHD

MacGyver.S02E18.Angriff.in.der.Luft.GERMAN.DUBBED.DL.720p.WebHD.h264-euHD 

MacGyver.S02E19.Faelschungen.und.Luegner.GERMAN.DUBBED.DL.720p.WebHD.h264-euHD

MacGyver.S02E20.Entfuehrung.im.Wolkenkratzer.GERMAN.DUBBED.DL.720p.WebHD.h264-euHD NEU

MacGyver.S02E21.Ein.Freund.in.der.Not.GERMAN.DUBBED.DL.720p.WebHD.h264-euHD NEU



General
Complete name                            : MacGyver.S02E01.Von.den.Toten.auferstanden.GERMAN.DUBBED.DL.720p.HDTV.h264-euHD\euhd-macgyver-2016-s02e01-720p.mkv
Format                                   : Matroska
Format version                           : Version 2
File size                                : 2.07 GiB
Duration                                 : 41mn 31s
Overall bit rate                         : 7 146 Kbps
Encoded date                             : UTC 2018-07-09 19:19:26
Writing application                      : mkvmerge v5.1.0 ('And so it goes') built on Nov 28 2011 23:58:28
Writing library                          : libebml v1.2.3 + libmatroska v1.3.0

Video
ID                                       : 1
Format                                   : AVC
Format/Info                              : Advanced Video Codec
Format profile                           : [email protected]
Format settings, CABAC                   : Yes
Format settings, ReFrames                : 9 frames
Codec ID                                 : V_MPEG4/ISO/AVC
Duration                                 : 41mn 31s
Bit rate                                 : 6 428 Kbps
Width                                    : 1 280 pixels
Height                                   : 720 pixels
Display aspect ratio                     : 16:9
Frame rate mode                          : Constant
Frame rate                               : 25.000 fps
Original frame rate                      : 23.976 fps
Color space                              : YUV
Chroma subsampling                       : 4:2:0
Bit depth                                : 8 bits
Scan type                                : Progressive
Bits/(Pixel*Frame)                       : 0.279
Stream size                              : 1.86 GiB (90%)
Writing library                          : x264 core 148 r2638 7599210
Encoding settings                        : cabac=1 / ref=9 / deblock=1:-3:-3 / analyse=0x3:0x133 / me=umh / subme=10 / psy=1 / psy_rd=1.00:0.00 / mixed_ref=1 / me_range=48 / chroma_me=1 / trellis=2 / 8x8dct=1 / cqm=0 / deadzone=21,11 / fast_pskip=0 / chroma_qp_offset=-2 / threads=12 / lookahead_threads=2 / sliced_threads=0 / nr=0 / decimate=0 / interlaced=0 / bluray_compat=0 / constrained_intra=0 / bframes=9 / b_pyramid=0 / b_adapt=2 / b_bias=0 / direct=3 / weightb=1 / open_gop=0 / weightp=2 / keyint=240 / keyint_min=23 / scenecut=40 / intra_refresh=0 / rc=crf / mbtree=0 / crf=17.0 / qcomp=0.60 / qpmin=10 / qpmax=51 / qpstep=4 / ip_ratio=1.40 / pb_ratio=1.30 / aq=3:0.70
Default                                  : Yes
Forced                                   : No

Audio #1
ID                                       : 2
Format                                   : AC-3
Format/Info                              : Audio Coding 3
Mode extension                           : CM (complete main)
Format settings, Endianness              : Big
Codec ID                                 : A_AC3
Duration                                 : 41mn 31s
Bit rate mode                            : Constant
Bit rate                                 : 192 Kbps
Channel(s)                               : 2 channels
Channel positions                        : Front: L R
Sampling rate                            : 48.0 KHz
Bit depth                                : 16 bits
Compression mode                         : Lossy
Stream size                              : 57.0 MiB (3%)
Language                                 : German
Default                                  : Yes
Forced                                   : No

Audio #2
ID                                       : 3
Format                                   : AC-3
Format/Info                              : Audio Coding 3
Mode extension                           : CM (complete main)
Format settings, Endianness              : Big
Codec ID                                 : A_AC3
Duration                                 : 41mn 31s
Bit rate mode                            : Constant
Bit rate                                 : 384 Kbps
Channel(s)                               : 6 channels
Channel positions                        : Front: L C R, Side: L R, LFE
Sampling rate                            : 48.0 KHz
Bit depth                                : 16 bits
Compression mode                         : Lossy
Stream size                              : 114 MiB (5%)
Language                                 : English
Default                                  : No
Forced                                   : No



Download:
Share-Online.biz Share-Online.bizShare-Online.bizShare-Online.biz | Rapidgator.net Rapidgator.netRapidgator.netRapidgator.net
 

Kommentare