HD-AREA wünscht Euch eine besinnliche Weihnachtszeit ;)

DNS SERVER AENDERNum der staatlichen Zensur zu umgehen. Sollten wir von eurem Provider geseprrt werden, nutzt den TOR BROWSER oder ändert euren DNS SERVER.

Filmwünsche können bei uns im Forum abgegeben werden

Wir Speichern Nicht




 
 
 
Top Releases
The.Equalizer.2.2018.MULTi.C...
The.Equalizer.2.2018.MULTi.C...
BlacKkKlansman.2018.German.D...
Espen.und.die.Legende.vom.Be...
Espen.und.die.Legende.vom.Be...
Flatliners.2017.German.AC3.D...
The.Last.Movie.Star.2017.Ger...
The.Equalizer.2.2018.German....
The.Last.Movie.Star.2017.Ger...
BlacKkKlansman.2018.MULTi.CO...

Cinedubs
Night.School.2018.GERMAN.DL....
Night.School.2018.GERMAN.DL....
Gaensehaut.2.Gruseliges.Hall...
Gaensehaut.2.Gruseliges.Hall...
Unknown.User.2.Dark.Web.Germ...
Unknown.User.2.Dark.Web.Germ...
Peppermint.Angel.of.Vengeanc...
Peppermint.Angel.of.Vengeanc...
Venom.German.DL.AC3.Dubbed.1...
Venom.2018.German.AC3D.5.1.D...

Neuerscheinungen 2017-18
Mara.2018.German.DL.1080p.Bl...
Future.World.2018.German.AC3...
Mara.2018.MULTi.COMPLETE.BLU...
Gotti.A.Real.American.Godfat...
Mandy.the.Haunted.Doll.2018....
Mandy.the.Haunted.Doll.2018....
Mandy.the.Haunted.Doll.2018....
Mandy.the.Haunted.Doll.Mandy...
Wildling.2018.German.DL.1080...
Wildling.2018.German.720p.Bl...

XXX
FatManFuck.17.10.08.Abbie.XX...
FatManFuck.17.10.03.Peaches....
MatureNL.18.11.30.Glynis.Ire...
Nerd.Pervert.Vol.31.XXX.1080...
MofosBSides.18.12.01.Monica....
MilfHunter.18.12.03.Victoria...
MatureNL.18.11.16.Danica.And...
MetArtX.18.12.01.Sybil.A.Lov...
MatureNL.18.11.23.Amy.Elizab...
MyFriendsHotMom.18.12.02.Van...
MyFamilyPies.18.12.03.Haley....
MonstersOfCock.18.12.02.Kali...
MatureNL.18.11.29.Calina.And...
MetArtX.18.12.03.Lena.Anders...
GroupSexGames.18.12.02.Lulu....
MatureNL.18.11.30.Elizabeth....
FatManFuck.17.10.15.Amber.XX...
Manuels.Maximum.Penetration....
Manuels.Maximum.Penetration....
Military.Minxes.XXX.720p.WEB...

3D
Gans.im.Glueck.3D.2018.MULTi...
The.Art.of.Flight.3D.2011.Ge...
The.End.Of.The.World.3D.2010...
The.First.Avenger.Civil.War....
Die.Unglaublichen.2.2018.3D....
Skyscraper.3D.2018.MULTi.COM...
Ant-Man.And.The.Wasp.3D.2018...
Ant.Man.and.the.Wasp.3D.2018...
Die.Unglaublichen.2.3D.2018....
Die.Unglaublichen.2.2018.3D....
Die.Unglaublichen.2.2018.3D....
Sharknado.6.The.Last.One.3D....
Deep.Kleine.Helden.der.Tiefs...
Deep.3D.2017.MULTI.COMPLETE....
Detective.Dee.und.die.Legend...

Old_Stuff
Akte.X.S04.German.DTS.DL.108...
Akte.X.S03.German.DTS.DL.108...
Dunkirk.1958.COMPLETE.BLURAY...
Das.Wunder.von.Manhattan.199...
The.Amazing.Spiderman.2.Rise...
Rise.of.the.Predator.2014.Ge...
Detective.Dee.und.das.Geheim...
Detective.Dee.Und.Der.Fluch....
Ghost.Rider.Spirit.of.Vengea...
Species.IV.Das.Erwachen.2007...
Species.IV.Das.Erwachen.2007...
Hotel.Transsilvanien.2012.Ge...
The.Dead.2010.German.DL.1080...
The.Dead.2.India.2013.German...
Britney.Spears.Live.The.Femm...

Filme
Red.Tears.Uncut.2011.German....
Red.Tails.2012.German.DL.108...
Mara.2018.German.DTS.DL.1080...
Marrakesch.1966.German.AC3D....
BlacKkKlansman.2018.German.D...
Santa.Claus.mit.Muckis.-.San...
Kommissar.Maigret.sieht.Rot....
Chloe.rettet.die.Welt.2015.G...
Mission.Impossible.Fallout.2...
Die.Conners.S01.German.DD51....
Die.Conners.S01.German.DD51....
Shut.Eye.S01.German.DD20.DL....
Shut.Eye.S01.German.DD20.DL....
Vanilla.Sky.2001.German.DL.A...
Midnight.Run.1988.German.AC3...
Vikings.S05.GERMAN.1080p.Web...
Vikings.S05.GERMAN.720p.WebH...
The.Gifted.S02.GERMAN.DL.108...
The.Gifted.S02.GERMAN.720p.H...
Riverdale.US.S03.GERMAN.DL.1...
Riverdale.US.S03.GERMAN.DL.7...
Krypton.S01.COMPLETE.GERMAN....
Get.Shorty.S02.German.DD51.S...
Get.Shorty.S02.German.DD51.S...

 
 
Die.kleine.Hexe.2018.German.720p.BluRay.x264-MOViEiT

Jahr: 2018
Genre: Abenteuer, Fantasy, Komödie
Sprache: Deutsch DTS
Laufzeit: 1h 42mn
Bitrate: 3 886 Kbps
Format: MKV
Größe: 2.79 GiB
Release:

Beschreibung:
Die kleine Hexe (Karoline Herfurth) will unbedingt mit den anderen Hexen in die Walpurgisnacht tanzen, doch sie ist erst 127 Jahre alt und damit viel zu jung dafür. Weil sie sich trotzdem heimlich auf das Fest schleicht und dabei erwischt wird, bekommt sie als Strafe auferlegt, alle Zaubersprüche aus dem großen magischen Buch in nur einem Jahr zu lernen. So soll sie beweisen, dass sie schon eine richtig große und gute Hexe ist. Doch dabei gibt es einige Widrigkeiten: So will die böse Hexe Rumpumpel (Suzanne von Borsody) unbedingt verhindern, dass sie erfolgreich ist und zudem ist die kleine Hexe nicht gerade besonders fleißig. Also versucht sie mit ihrem sprechenden Raben Abraxas (Stimme: Axel Prahl) herauszufinden, ob es nicht einen einfacheren Weg gibt um sich als gute Hexe zu beweisen, und sorgt damit für jede Menge Trubel in der Hexenwelt.


Complete name                            : mi-kleinehexe-720p.mkv
Format                                   : Matroska
Format version                           : Version 4 / Version 2
File size                                : 2.79 GiB
Duration                                 : 1h 42mn
Overall bit rate                         : 3 886 Kbps
Encoded date                             : UTC 2018-08-10 00:19:02
Writing application                      : mkvmerge v9.0.1 ('Obstacles') 64bit
Writing library                          : libebml v1.3.3 + libmatroska v1.4.4
DURATION                                 : 01:42:46.379000000
NUMBER_OF_FRAMES                         : 578098
NUMBER_OF_BYTES                          : 1163133176
_STATISTICS_WRITING_APP                  : mkvmerge v9.0.1 ('Obstacles') 64bit
_STATISTICS_WRITING_DATE_UTC             : 2018-08-10 00:19:02
_STATISTICS_TAGS                         : BPS DURATION NUMBER_OF_FRAMES NUMBER_OF_BYTES

Video
ID                                       : 1
Format                                   : AVC
Format/Info                              : Advanced Video Codec
Format profile                           : [email protected]
Format settings, CABAC                   : Yes
Format settings, ReFrames                : 5 frames
Codec ID                                 : V_MPEG4/ISO/AVC
Duration                                 : 1h 42mn
Bit rate                                 : 2 300 Kbps
Width                                    : 1 280 pixels
Height                                   : 536 pixels
Display aspect ratio                     : 2.40:1
Frame rate mode                          : Constant
Frame rate                               : 24.000 fps
Color space                              : YUV
Chroma subsampling                       : 4:2:0
Bit depth                                : 8 bits
Scan type                                : Progressive
Bits/(Pixel*Frame)                       : 0.140
Stream size                              : 1.65 GiB (59%)
Writing library                          : x264 core 155 r2901 7d0ff22
Encoding settings                        : cabac=1 / ref=5 / deblock=1:-1:-1 / analyse=0x3:0x113 / me=umh / subme=7 / psy=1 / psy_rd=1.00:0.00 / mixed_ref=1 / me_range=16 / chroma_me=1 / trellis=1 / 8x8dct=1 / cqm=0 / deadzone=21,11 / fast_pskip=0 / chroma_qp_offset=-2 / threads=12 / lookahead_threads=2 / sliced_threads=0 / nr=0 / decimate=1 / interlaced=0 / bluray_compat=0 / constrained_intra=0 / bframes=3 / b_pyramid=2 / b_adapt=1 / b_bias=0 / direct=3 / weightb=1 / open_gop=0 / weightp=2 / keyint=250 / keyint_min=24 / scenecut=40 / intra_refresh=0 / rc_lookahead=40 / rc=crf / mbtree=1 / crf=20.0 / qcomp=0.60 / qpmin=0 / qpmax=69 / qpstep=4 / ip_ratio=1.40 / aq=1:1.00
Default                                  : Yes
Forced                                   : No

Audio
ID                                       : 2
Format                                   : DTS
Format/Info                              : Digital Theater Systems
Mode                                     : 16
Format settings, Endianness              : Big
Codec ID                                 : A_DTS
Duration                                 : 1h 42mn
Bit rate mode                            : Constant
Bit rate                                 : 1 509 Kbps
Channel(s)                               : 6 channels
Channel positions                        : Front: L C R, Side: L R, LFE
Sampling rate                            : 48.0 KHz
Bit depth                                : 24 bits
Compression mode                         : Lossy
Stream size                              : 1.08 GiB (39%)
Language                                 : German
Default                                  : Yes
Forced                                   : No


Download:
Share Online Share OnlineShare OnlineShare Online
 

Kommentare