HD-AREA wünscht Euch eine besinnliche Weihnachtszeit ;)

DNS SERVER AENDERNum der staatlichen Zensur zu umgehen. Sollten wir von eurem Provider geseprrt werden, nutzt den TOR BROWSER oder ändert euren DNS SERVER.

Filmwünsche können bei uns im Forum abgegeben werden

Wir Speichern Nicht




 
 
 
Top Releases
The.Hateful.8.2015.German.AC...
Der.Unsichtbare.Gast.2016.Ge...
BlacKkKlansman.2018.German.A...
Von.Loewen.und.Laemmern.2007...
Von.Loewen.und.Laemmern.2007...
Von.Loewen.und.Laemmern.2007...
Braven.2018.German.AC3.DL.10...
The.Last.Movie.Star.2017.DUA...
The.Infiltrator.2016.German....
The.Equalizer.2.2018.German....

Cinedubs
Phantastische.Tierwesen.Grin...
Phantastische.Tierwesen.Grin...
The.Guilty.2018.German.AC3D....
The.Guilty.2018.German.AC3D....
Aufbruch.zum.Mond.German.DL....
Aufbruch.zum.Mond.German.DL....
Night.School.2018.GERMAN.DL....
Night.School.2018.GERMAN.DL....
Gaensehaut.2.Gruseliges.Hall...
Gaensehaut.2.Gruseliges.Hall...

Neuerscheinungen 2017-18
They.Shall.Not.Grow.Old.2018...
Death.Kiss.2018.Uncut.German...
Pyewacket.Toedlicher.Fluch.2...
Leben.Und.Sterben.In.L.A.REM...
The.Running.Man.-.Limited.Co...
Alarmstufe.Rot.2.Under.Siege...
Egal.was.kommt.2018.GERMAN.D...
Occupation.2018.GERMAN.DL.10...
Campus.Killer.Das.Boese.Kehr...
Campus.Killer.Das.Boese.Kehr...

XXX
ATKHairy.18.12.09.Selesta.XX...
1By-Day.18.12.12.Amber.Jayne...
ATKHairy.18.12.08.Isabel.Ste...
ATKHairy.18.12.10.Bella.Dahl...
1000Facials.18.12.10.Scarlet...
AnalTeenAngels.18.12.11.Stel...
Bang.RealMILFs.18.12.11.Ryde...
AllGirlMassage.18.12.10.Broo...
AmateurCFNM.18.12.11.Mandy.S...
Analized.18.12.07.Victoria.P...
AuntJudys.18.12.07.Nurse.Nat...
Anilos.18.12.10.Kayla.Green....
AbbyWinters.18.12.11.Sarah.Q...
AdultTime.18.12.11.India.Sum...
ATKGirlfriends.18.12.10.Dann...
BCM.18.12.10.Christie.Steven...
Babes.18.12.12.Nia.Nacci.Hea...
ALSScan.18.12.12.Sonia.Red.C...
AllInternal.18.12.10.Ally.St...
AuntJudys.18.12.10.Callidica...

3D
Meg.3D.2018.MULTi.COMPLETE.B...
Meg.3D.2018.German.DL.1080p....
Gans.im.Glueck.3D.2018.MULTi...
The.Art.of.Flight.3D.2011.Ge...
The.End.Of.The.World.3D.2010...
The.First.Avenger.Civil.War....
Die.Unglaublichen.2.2018.3D....
Skyscraper.3D.2018.MULTi.COM...
Ant-Man.And.The.Wasp.3D.2018...
Ant.Man.and.the.Wasp.3D.2018...
Die.Unglaublichen.2.3D.2018....
Die.Unglaublichen.2.2018.3D....
Die.Unglaublichen.2.2018.3D....
Sharknado.6.The.Last.One.3D....
Deep.Kleine.Helden.der.Tiefs...

Old_Stuff
Akte.X.S04.German.DTS.DL.108...
Akte.X.S03.German.DTS.DL.108...
Dunkirk.1958.COMPLETE.BLURAY...
Das.Wunder.von.Manhattan.199...
The.Amazing.Spiderman.2.Rise...
Rise.of.the.Predator.2014.Ge...
Detective.Dee.und.das.Geheim...
Detective.Dee.Und.Der.Fluch....
Ghost.Rider.Spirit.of.Vengea...
Species.IV.Das.Erwachen.2007...
Species.IV.Das.Erwachen.2007...
Hotel.Transsilvanien.2012.Ge...
The.Dead.2010.German.DL.1080...
The.Dead.2.India.2013.German...
Britney.Spears.Live.The.Femm...

Filme
The.Lost.Boys.1987.German.AC...
Respire.Halt.den.Atem.an.201...
Restitution.2011.German.DL.1...
Resurrection.County.2008.Ger...
Incubus.Moerderische.Traeume...
Hachiko.Eine.wunderbare.Freu...
Ohne.Schuld.2008.German.AC3....
Untraceable.2008.German.AC3....
Willkommen.im.Sueden.2010.Ge...
Snatch.S02.German.DL.DUBBED....
Snatch.S02.German.DL.DUBBED....
12.Monkeys.S03.COMPLETE.GERM...
12.Monkeys.S03.COMPLETE.GERM...
Criminal.Minds.S13.COMPLETE....
Once.Upon.a.Time.S07.German....
Once.Upon.a.Time.S07.German....
Ice.S02.GERMAN.DL.1080p.HDTV...
Ice.S02.GERMAN.DL.720p.HDTV....
Die.purpurnen.Fluesse.The.Cr...
Quantico.S03.GERMAN.DL.DUBBE...
Quantico.S03.GERMAN.DUBBED.7...
Venom.2018.German.AC3D.5.1.D...
Ray.Donovan.S06.GERMAN.DUBBE...
Ray.Donovan.S06.GERMAN.DUBBE...

 
 
A.Thought.of.Ecstasy.2017.German.AC3.DL.1080p.BluRay.x265-FuN

Jahr: 2017
Genre: Thriller
Sprache: Deutsch AC3 | Englisch AC3
Laufzeit: 1h 29mn
Bitrate: 1 991 Kbps
Format: MKV
Größe: 1.24 GiB
Release:

Beschreibung:

Sommer 2019: Frank erkennt in einem neu erschienenen Buch seine eigene, zwanzig Jahre zurückliegende Lebensgeschichte wieder. Er erinnert sich an Marie, mit der er in Deutschland eine intensive Beziehung hatte – bevor sie plötzlich aus seinem Leben und nach Amerika verschwand. Kurzerhand beschließt er, sich auf die Suche nach Marie zu machen. Dabei kommt Frank in ein Land, das unter einer erdrückenden Hitzewelle erstarrt und sich in Misstrauen und politischer Paranoia verliert. Er begibt sich auf eine exzessive Reise in die Wüste des Death Valleys, auf den Spuren von Maries Leben und seiner eigenen Vergangenheit.



Complete name                            : A.Thought.of.Ecstasy.x265.mkv
Format                                   : Matroska
Format version                           : Version 4 / Version 2
File size                                : 1.24 GiB
Duration                                 : 1h 29mn
Overall bit rate                         : 1 991 Kbps
Encoded date                             : UTC 2018-08-19T00:16:45Z
Writing application                      : mkvmerge v10.0.0 ('To Drown In You') 64bit
Writing library                          : Lavf57.7.2
DURATION                                 : 01:24:43.873000000
NUMBER_OF_FRAMES                         : 399
NUMBER_OF_BYTES                          : 1250549
_STATISTICS_WRITING_APP                  : mkvmerge v10.0.0 ('To Drown In You') 64bit
_STATISTICS_WRITING_DATE_UTC             : 2018-08-19 13:01:35
_STATISTICS_TAGS                         : BPS DURATION NUMBER_OF_FRAMES NUMBER_OF_BYTES

Video
ID                                       : 1
Format                                   : HEVC
Format/Info                              : High Efficiency Video Coding
Format profile                           : [email protected]
Codec ID                                 : V_MPEGH/ISO/HEVC
Duration                                 : 1h 29mn
Bit rate                                 : 1 183 Kbps
Width                                    : 1 920 pixels
Height                                   : 1 080 pixels
Display aspect ratio                     : 16:9
Frame rate mode                          : Constant
Frame rate                               : 24.000 fps
Color space                              : YUV
Chroma subsampling                       : 4:2:0
Bit depth                                : 8 bits
Bits/(Pixel*Frame)                       : 0.024
Stream size                              : 754 MiB (59%)
Writing library                          : x265 2.1:[Windows][GCC 5.3.1][64 bit] 8bit
Encoding settings                        : wpp / ctu=64 / min-cu-size=8 / max-tu-size=32 / tu-intra-depth=1 / tu-inter-depth=1 / me=1 / subme=2 / merange=57 / no-rect / no-amp / max-merge=2 / temporal-mvp / no-early-skip / rskip / rdpenalty=0 / no-tskip / no-tskip-fast / no-strong-intra-smoothing / no-lossless / no-cu-lossless / no-constrained-intra / no-fast-intra / open-gop / no-temporal-layers / interlace=0 / keyint=240 / min-keyint=24 / scenecut=40 / rc-lookahead=20 / lookahead-slices=6 / bframes=4 / bframe-bias=0 / b-adapt=2 / ref=3 / limit-refs=3 / no-limit-modes / weightp / no-weightb / aq-mode=1 / qg-size=32 / aq-strength=1.00 / cbqpoffs=0 / crqpoffs=0 / rd=3 / psy-rd=2.00 / rdoq-level=0 / psy-rdoq=0.00 / log2-max-poc-lsb=8 / no-rd-refine / signhide / deblock=0:0 / no-sao / no-sao-non-deblock / b-pyramid / cutree / no-intra-refresh / rc=crf / crf=23.0 / qcomp=0.60 / qpmin=0 / qpmax=69 / qpstep=4 / ipratio=1.40 / pbratio=1.30
Default                                  : Yes
Forced                                   : No
DURATION                                 : 01:29:05.000000000
NUMBER_OF_FRAMES                         : 128280
NUMBER_OF_BYTES                          : 814269208
_STATISTICS_WRITING_APP                  : mkvmerge v10.0.0 ('To Drown In You') 64bit
_STATISTICS_WRITING_DATE_UTC             : 2018-08-19 13:01:35
_STATISTICS_TAGS                         : BPS DURATION NUMBER_OF_FRAMES NUMBER_OF_BYTES

Audio #1
ID                                       : 2
Format                                   : AC-3
Format/Info                              : Audio Coding 3
Mode extension                           : CM (complete main)
Format settings, Endianness              : Big
Codec ID                                 : A_AC3
Duration                                 : 1h 29mn
Bit rate mode                            : Constant
Bit rate                                 : 384 Kbps
Channel(s)                               : 6 channels
Channel positions                        : Front: L C R, Side: L R, LFE
Sampling rate                            : 48.0 KHz
Bit depth                                : 16 bits
Compression mode                         : Lossy
Delay relative to video                  : -5ms
Stream size                              : 245 MiB (19%)
Title                                    : Surround
Language                                 : German
Default                                  : Yes
Forced                                   : No
DURATION                                 : 01:29:04.992000000
NUMBER_OF_FRAMES                         : 167031
NUMBER_OF_BYTES                          : 256559616
_STATISTICS_WRITING_APP                  : mkvmerge v10.0.0 ('To Drown In You') 64bit
_STATISTICS_WRITING_DATE_UTC             : 2018-08-19 13:01:35
_STATISTICS_TAGS                         : BPS DURATION NUMBER_OF_FRAMES NUMBER_OF_BYTES

Audio #2
ID                                       : 3
Format                                   : AC-3
Format/Info                              : Audio Coding 3
Mode extension                           : CM (complete main)
Format settings, Endianness              : Big
Codec ID                                 : A_AC3
Duration                                 : 1h 29mn
Bit rate mode                            : Constant
Bit rate                                 : 384 Kbps
Channel(s)                               : 6 channels
Channel positions                        : Front: L C R, Side: L R, LFE
Sampling rate                            : 48.0 KHz
Bit depth                                : 16 bits
Compression mode                         : Lossy
Delay relative to video                  : -5ms
Stream size                              : 245 MiB (19%)
Title                                    : Surround
Language                                 : English
Default                                  : No
Forced                                   : No
DURATION                                 : 01:29:04.992000000
NUMBER_OF_FRAMES                         : 167031
NUMBER_OF_BYTES                          : 256559616
_STATISTICS_WRITING_APP                  : mkvmerge v10.0.0 ('To Drown In You') 64bit
_STATISTICS_WRITING_DATE_UTC             : 2018-08-19 13:01:35
_STATISTICS_TAGS                         : BPS DURATION NUMBER_OF_FRAMES NUMBER_OF_BYTES

Text
ID                                       : 4
Format                                   : VobSub
Muxing mode                              : zlib
Codec ID                                 : S_VOBSUB
Codec ID/Info                            : The same subtitle format used on DVDs
Title                                    : German
Language                                 : German
Default                                  : No
Forced                                   : No


Download:
Share Online Share OnlineShare OnlineShare Online
 

Kommentare