Episode 3 | HD Tomb Raider (2018) | Drben bei Lehmanns (1)
 


 

Filecrypt zeigt vereinzelt Files als "n/a". Die Downloads sind trotzdem komplett.

DNS SERVER AENDERNum der staatlichen Zensur zu umgehen. Sollten wir von eurem Provider geseprrt werden, nutzt den TOR BROWSER oder ändert euren DNS SERVER.

Filmwünsche können bei uns im Forum abgegeben werden

Wir Speichern Nicht




 
 
 
Top Releases
Final.Take-Off.Einsame.Entsc...
Passengers.2016.German.AC3.D...
Wolfsnaechte.2018.German.AC3...
Brawl.in.Cell.Block.99.2017....
Gravity.Diamond.Luxe.Edition...
Middle.School.The.Worst.Year...
Brawl.in.Cell.Block.99.2017....
Mindhorn.2016.German.AC3.DL....
Die.letzte.Party.deines.Lebe...
Sand.Castle.2017.German.AC3....

Cinedubs
Bad.Spies.2018.German.AC3MD....
Bad.Spies.2018.German.AC3MD....
MEG.Biss.bald.2018.German.AC...
Slender.Man.2018.GERMAN.DL.A...
Slender.Man.2018.GERMAN.DL.A...
MEG.Biss.bald.2018.German.AC...
MEG.Biss.bald.2018.German.AC...
Searching.2018.German.AC3MD....
Searching.2018.German.AC3MD....
211.Cops.Under.Fire.2018.Ger...

Neuerscheinungen 2017-18
The.Watcher.Willkommen.im.Mo...
Vielmachglas.2018.German.AC3...
The.First.Purge.2018.German....
Am.Anfang.war.das.Feuer.La.g...
Uncle.Drew.2018.German.AC3.D...
Uncle.Drew.2018.German.AC3.D...
Wildes.Herz.2017.MULTi.COMPL...
Die.Biene.Maja.2.Die.Honigsp...
Die.Biene.Maja.2.Die.Honigsp...
Wildes.Herz.2017.German.1080...

XXX
OralOverdose.18.10.04.Kat.Mo...
TeenCreeper.E32.Cadence.Lux....
MofosBSides.18.10.05.Kitty.C...
MomXXX.18.10.04.Blanche.Summ...
Private.18.10.05.Francesca.D...
HotAndMean.18.10.02.Abella.D...
RoccoSiffredi.18.10.05.Lilu....
POVBitch.18.10.03.Kizzy.Sixx...
Housewife1On1.18.10.05.Jade....
MistressT.18.05.17.Video.Cha...
VIPArea.18.10.01.Prinzzess.P...
JapanHDV.18.10.02.Yuna.Hoshi...
Swallowed.18.09.30.Gia.Derza...
MistressT.18.03.14.Cum.On.Yo...
CherryPimps.18.10.03.Summer....
MistressT.18.03.03.MILF.Show...
MistressT.18.04.13.Sniff.Str...
Private.Specials.230.Russian...
PlayboyPlus.18.10.01.Olivia....
GloryHoleSecrets.18.10.05.Li...

3D
Detective.Dee.und.die.Legend...
Detective.Dee.und.die.Legend...
Skyscraper.3D.German.DL.AC3....
Ant-Man.and.the.Wasp.2018.3D...
Jurassic.World.Das.gefallene...
Jurassic.World.Das.gefallene...
Best.of.3D.vol.10.-.12.GERMA...
Die.Biene.Maja.2.Die.Honigsp...
Sharknado.6.The.Last.One.3D....
Solo.A.Star.Wars.Story.3D.20...
Solo.A.Star.Wars.Story.3D.20...
Die.Biene.Maja.2.Die.Honigsp...
Avengers.Infinity.War.3D.201...
Avengers.Infinity.War.3D.201...
Rampage.Big.Meets.Bigger.3D....

Old_Stuff
Species.IV.Das.Erwachen.2007...
Species.IV.Das.Erwachen.2007...
Hotel.Transsilvanien.2012.Ge...
The.Dead.2010.German.DL.1080...
The.Dead.2.India.2013.German...
Britney.Spears.Live.The.Femm...
Buffy.The.Vampire.Slayer.199...
IMAX.Ride.Around.The.World.2...
Schimanski.-.Duisburg.Ruhror...
Akte.X.S02.German.DTS.DL.108...
How.I.Met.Your.Mother.S02.Ge...
Akte.X.S01.German.DTS.DL.108...
Den.Himmel.gibts.echt.DL.108...
Vikings.S02.German.DL.1080p....
Be.Kind.Rewind.Abgedreht.200...

Filme
The.Originals.S05.GERMAN.720...
The.Magicians.S03.GERMAN.720...
Ballers.S04.GERMAN.DUBBED.DL...
Ballers.S04.GERMAN.DUBBED.DL...
Animal.Kingdom.S03.COMPLETE....
Once.Upon.a.Time.S07.German....
Once.Upon.a.Time.S07.German....
Marvels.Agents.of.S.H.I.E.L....
Marvels.Agents.of.S.H.I.E.L....
Modern.Family.S08.GERMAN.DUB...
Modern.Family.S08.GERMAN.DUB...
Antiviral.2012.German.AC3.DL...
Lucy.2014.German.AC3D.DL.108...
Nackte.Eva.1976.German.AC3D....
Das.Unheimliche.Auge.1987.Ge...
Gestern.heute.und.morgen.Ger...
Dead.in.Tombstone.2013.Germa...
The.Hooligan.Club.Fear.and.F...
The.Hooligan.Factory.Helden....
Snaked.Fear.Wueste.des.Terro...
Anatomie.einer.Entfuehrung.2...
Sharknado.6.The.Last.One.201...
Die.Schoene.und.die.Bestie.1...
Babylon.Berlin.S01.D01-2.GER...

 
 
Infestation.Nur.ein.toter.Kaefer.ist.ein.guter.Kaefer.2009.German.AC3.DL.1080p.BluRay.x265-FuN

Jahr: 2009
Genre: Action, Horror
Sprache: Deutsch AC3 | Englisch AC3
Laufzeit: 1h 31mn
Bitrate: 4 132 Kbps
Format: MKV
Größe: 2.63 GiB
Release:

Beschreibung:

Für den Twen Cooper ist es nicht gerade ein Glückstag. Gerade am Arbeitsplatz angekommen, wird ihm die unangenehme Nachricht überbracht, das er fristlos gekündigt wird. Doch noch im Büro seiner Chefin wird dieses Problem zur Lappalie: ein ohrenbetäubendes Geräusch zwingt sämtliche Menschen in die Knie und lässt sie in Ohnmacht fallen. Als Cooper aufwacht, ist er in einem Netz verpuppt, mehrere Tage sind vergangen. Kurz nachdem er sich aus dem Netz befreit hat muss er den Angriff eines gigantischen Käfers von der Größe eines ausgewachsenen Mannes abwehren. Anschließend lässt er die anderen gefangenen Menschen frei. Die Gruppe sieht sich einer postapokalyptischen Situation gegenüber: Die Straßen der Großstadt sind leer gefegt, alle Menschen bewusstlos in den Netzen der Käfer gefangen. Diese scheinen überall zu sein – doch die übermächtigen Insekten lassen die Menschen leben. Sie scheinen einen dubioses Ziel zu verfolgen...




Format                                   : Matroska
Format version                           : Version 4 / Version 2
File size                                : 2.63 GiB
Duration                                 : 1h 31mn
Overall bit rate                         : 4 132 Kbps
Movie name                               : Infestation - Nur ein toter K?fer ist ein guter K?fer (2009) Capelight BD25-Kimura
Encoded date                             : UTC 2018-09-07 14:31:18
Writing application                      : mkvmerge v20.0.0 ('I Am The Sun') 64-bit
Writing library                          : libebml v1.3.5 + libmatroska v1.4.8
Attachements                             : Cover.jpg
DURATION                                 : 00:01:21.915000000
NUMBER_OF_FRAMES                         : 18
NUMBER_OF_BYTES                          : 831
_STATISTICS_WRITING_APP                  : mkvmerge v20.0.0 ('I Am The Sun') 64-bit
_STATISTICS_WRITING_DATE_UTC             : 2018-09-07 14:31:18
_STATISTICS_TAGS                         : BPS DURATION NUMBER_OF_FRAMES NUMBER_OF_BYTES

Video
ID                                       : 1
Format                                   : HEVC
Format/Info                              : High Efficiency Video Coding
Format profile                           : [email protected]
Codec ID                                 : V_MPEGH/ISO/HEVC
Duration                                 : 1h 31mn
Bit rate                                 : 3 282 Kbps
Width                                    : 1 918 pixels
Height                                   : 1 036 pixels
Display aspect ratio                     : 1.85:1
Frame rate mode                          : Constant
Frame rate                               : 23.976 fps
Color space                              : YUV
Chroma subsampling                       : 4:2:0
Bit depth                                : 8 bits
Bits/(Pixel*Frame)                       : 0.069
Stream size                              : 2.09 GiB (79%)
Writing library                          : x265 2.6:[Windows][GCC 7.3.0][64 bit] 8bit+10bit+12bit
Encoding settings                        : cpuid=1173503 / frame-threads=3 / numa-pools=8 / wpp / no-pmode / no-pme / no-psnr / no-ssim / log-level=2 / input-csp=1 / input-res=1918x1036 / interlace=0 / total-frames=0 / level-idc=0 / high-tier=1 / uhd-bd=0 / ref=3 / no-allow-non-conformance / no-repeat-headers / annexb / no-aud / no-hrd / info / hash=0 / no-temporal-layers / open-gop / min-keyint=24 / keyint=240 / bframes=4 / b-adapt=0 / b-pyramid / bframe-bias=0 / rc-lookahead=15 / lookahead-slices=6 / scenecut=40 / no-intra-refresh / ctu=64 / min-cu-size=8 / no-rect / no-amp / max-tu-size=32 / tu-inter-depth=1 / tu-intra-depth=1 / limit-tu=0 / rdoq-level=0 / dynamic-rd=0.00 / no-ssim-rd / signhide / no-tskip / nr-intra=0 / nr-inter=0 / no-constrained-intra / no-strong-intra-smoothing / max-merge=2 / limit-refs=3 / no-limit-modes / me=1 / subme=2 / merange=57 / temporal-mvp / weightp / no-weightb / no-analyze-src-pics / deblock=0:0 / no-sao / no-sao-non-deblock / rd=2 / no-early-skip / rskip / fast-intra / no-tskip-fast / no-cu-lossless / no-b-intra / no-splitrd-skip / rdpenalty=0 / psy-rd=2.00 / psy-rdoq=0.00 / no-rd-refine / analysis-reuse-mode=0 / no-lossless / cbqpoffs=0 / crqpoffs=0 / rc=crf / crf=22.0 / qcomp=0.60 / qpstep=4 / stats-write=0 / stats-read=0 / ipratio=1.40 / pbratio=1.30 / aq-mode=1 / aq-strength=1.00 / cutree / zone-count=0 / no-strict-cbr / qg-size=32 / no-rc-grain / qpmax=69 / qpmin=0 / no-const-vbv / sar=1 / overscan=0 / videoformat=5 / range=0 / colorprim=1 / transfer=1 / colormatrix=1 / chromaloc=0 / display-window=0 / max-cll=0,0 / min-luma=0 / max-luma=255 / log2-max-poc-lsb=8 / vui-timing-info / vui-hrd-info / slices=1 / no-opt-qp-pps / no-opt-ref-list-length-pps / no-multi-pass-opt-rps / scenecut-bias=0.05 / no-opt-cu-delta-qp / no-aq-motion / no-hdr / no-hdr-opt / no-dhdr10-opt / analysis-reuse-level=5 / scale-factor=0 / refine-intra=0 / refine-inter=0 / refine-mv=0 / no-limit-sao / ctu-info=0 / no-lowpass-dct / refine-mv-type=0 / copy-pic=1
Default                                  : Yes
Forced                                   : No
DURATION                                 : 01:31:05.460000000
NUMBER_OF_FRAMES                         : 131040
NUMBER_OF_BYTES                          : 2255277482
_STATISTICS_WRITING_APP                  : mkvmerge v20.0.0 ('I Am The Sun') 64-bit
_STATISTICS_WRITING_DATE_UTC             : 2018-09-07 14:31:18
_STATISTICS_TAGS                         : BPS DURATION NUMBER_OF_FRAMES NUMBER_OF_BYTES

Audio #1
ID                                       : 2
Format                                   : AC-3
Format/Info                              : Audio Coding 3
Mode extension                           : CM (complete main)
Format settings, Endianness              : Big
Codec ID                                 : A_AC3
Duration                                 : 1h 31mn
Bit rate mode                            : Constant
Bit rate                                 : 384 Kbps
Channel(s)                               : 6 channels
Channel positions                        : Front: L C R, Side: L R, LFE
Sampling rate                            : 48.0 KHz
Bit depth                                : 16 bits
Compression mode                         : Lossy
Stream size                              : 250 MiB (9%)
Title                                    : Surround
Language                                 : German
Default                                  : Yes
Forced                                   : No
DURATION                                 : 01:31:05.440000000
NUMBER_OF_FRAMES                         : 170795
NUMBER_OF_BYTES                          : 262341120
_STATISTICS_WRITING_APP                  : mkvmerge v20.0.0 ('I Am The Sun') 64-bit
_STATISTICS_WRITING_DATE_UTC             : 2018-09-07 14:31:18
_STATISTICS_TAGS                         : BPS DURATION NUMBER_OF_FRAMES NUMBER_OF_BYTES

Audio #2
ID                                       : 3
Format                                   : AC-3
Format/Info                              : Audio Coding 3
Mode extension                           : CM (complete main)
Format settings, Endianness              : Big
Codec ID                                 : A_AC3
Duration                                 : 1h 31mn
Bit rate mode                            : Constant
Bit rate                                 : 384 Kbps
Channel(s)                               : 6 channels
Channel positions                        : Front: L C R, Side: L R, LFE
Sampling rate                            : 48.0 KHz
Bit depth                                : 16 bits
Compression mode                         : Lossy
Stream size                              : 250 MiB (9%)
Title                                    : Surround
Language                                 : English
Default                                  : No
Forced                                   : No
DURATION                                 : 01:31:05.440000000
NUMBER_OF_FRAMES                         : 170795
NUMBER_OF_BYTES                          : 262341120
_STATISTICS_WRITING_APP                  : mkvmerge v20.0.0 ('I Am The Sun') 64-bit
_STATISTICS_WRITING_DATE_UTC             : 2018-09-07 14:31:18
_STATISTICS_TAGS                         : BPS DURATION NUMBER_OF_FRAMES NUMBER_OF_BYTES

Text #1
ID                                       : 4
Format                                   : UTF-8
Codec ID                                 : S_TEXT/UTF8
Codec ID/Info                            : UTF-8 Plain Text
Title                                    : forced
Language                                 : German
Default                                  : Yes
Forced                                   : Yes
DURATION                                 : 01:20:03.674000000
NUMBER_OF_FRAMES                         : 2070
NUMBER_OF_BYTES                          : 23947013
_STATISTICS_WRITING_APP                  : mkvmerge v20.0.0 ('I Am The Sun') 64-bit
_STATISTICS_WRITING_DATE_UTC             : 2018-09-07 14:31:18
_STATISTICS_TAGS                         : BPS DURATION NUMBER_OF_FRAMES NUMBER_OF_BYTES

Text #2
ID                                       : 5
Format                                   : PGS
Muxing mode                              : zlib
Codec ID                                 : S_HDMV/PGS
Codec ID/Info                            : The same subtitle format used on BDs/HD-DVDs
Title                                    : PGS forced
Language                                 : German
Default                                  : No
Forced                                   : No
DURATION                                 : 01:20:04.800000000
NUMBER_OF_FRAMES                         : 1731
NUMBER_OF_BYTES                          : 19774085
_STATISTICS_WRITING_APP                  : mkvmerge v20.0.0 ('I Am The Sun') 64-bit
_STATISTICS_WRITING_DATE_UTC             : 2018-09-07 14:31:18
_STATISTICS_TAGS                         : BPS DURATION NUMBER_OF_FRAMES NUMBER_OF_BYTES

Text #3
ID                                       : 6
Format                                   : PGS
Muxing mode                              : zlib
Codec ID                                 : S_HDMV/PGS
Codec ID/Info                            : The same subtitle format used on BDs/HD-DVDs
Title                                    : PGS FULL
Language                                 : German
Default                                  : No
Forced                                   : No
DURATION                                 : 01:30:17.662000000
NUMBER_OF_FRAMES                         : 3041
NUMBER_OF_BYTES                          : 47645625
_STATISTICS_WRITING_APP                  : mkvmerge v20.0.0 ('I Am The Sun') 64-bit
_STATISTICS_WRITING_DATE_UTC             : 2018-09-07 14:31:18
_STATISTICS_TAGS                         : BPS DURATION NUMBER_OF_FRAMES NUMBER_OF_BYTES

Text #4
ID                                       : 7
Format                                   : PGS
Muxing mode                              : zlib
Codec ID                                 : S_HDMV/PGS
Codec ID/Info                            : The same subtitle format used on BDs/HD-DVDs
Title                                    : Audiokommentar von Regisseur Kyle Rankin
Language                                 : German
Default                                  : No
Forced                                   : No
DURATION                                 : 00:01:21.915000000
NUMBER_OF_FRAMES                         : 36
NUMBER_OF_BYTES                          : 528982
_STATISTICS_WRITING_APP                  : mkvmerge v20.0.0 ('I Am The Sun') 64-bit
_STATISTICS_WRITING_DATE_UTC             : 2018-09-07 14:31:18
_STATISTICS_TAGS                         : BPS DURATION NUMBER_OF_FRAMES NUMBER_OF_BYTES

Text #5
ID                                       : 8
Format                                   : PGS
Muxing mode                              : zlib
Codec ID                                 : S_HDMV/PGS
Codec ID/Info                            : The same subtitle format used on BDs/HD-DVDs
Title                                    : PGS FULL
Language                                 : English
Default                                  : No
Forced                                   : No



Download:
Share Online Share OnlineShare OnlineShare Online
 

Kommentare