3x13 Yama no Susume | 1x836 Acacias 38 | El Puente HDTV 720p AC3 5.1
 


 

Filecrypt zeigt vereinzelt Files als "n/a". Die Downloads sind trotzdem komplett.

DNS SERVER AENDERNum der staatlichen Zensur zu umgehen. Sollten wir von eurem Provider geseprrt werden, nutzt den TOR BROWSER oder ändert euren DNS SERVER.

Filmwünsche können bei uns im Forum abgegeben werden

Wir Speichern Nicht




 
 
 
Top Releases
Final.Take-Off.Einsame.Entsc...
Passengers.2016.German.AC3.D...
Wolfsnaechte.2018.German.AC3...
Brawl.in.Cell.Block.99.2017....
Gravity.Diamond.Luxe.Edition...
Middle.School.The.Worst.Year...
Brawl.in.Cell.Block.99.2017....
Mindhorn.2016.German.AC3.DL....
Die.letzte.Party.deines.Lebe...
Sand.Castle.2017.German.AC3....

Cinedubs
Bad.Spies.2018.German.AC3MD....
Bad.Spies.2018.German.AC3MD....
MEG.Biss.bald.2018.German.AC...
Slender.Man.2018.GERMAN.DL.A...
Slender.Man.2018.GERMAN.DL.A...
MEG.Biss.bald.2018.German.AC...
MEG.Biss.bald.2018.German.AC...
Searching.2018.German.AC3MD....
Searching.2018.German.AC3MD....
211.Cops.Under.Fire.2018.Ger...

Neuerscheinungen 2017-18
The.Watcher.Willkommen.im.Mo...
Vielmachglas.2018.German.AC3...
The.First.Purge.2018.German....
Am.Anfang.war.das.Feuer.La.g...
Uncle.Drew.2018.German.AC3.D...
Uncle.Drew.2018.German.AC3.D...
Wildes.Herz.2017.MULTi.COMPL...
Die.Biene.Maja.2.Die.Honigsp...
Die.Biene.Maja.2.Die.Honigsp...
Wildes.Herz.2017.German.1080...

XXX
PrivateSociety.18.10.02.Gang...
GermanGooGirls.18.10.02.Dais...
HarmonyVision.18.10.04.Lady....
Pantyhosed4U.18.10.03.Amber....
FamilyStrokes.18.10.04.Esper...
GapeLand.18.10.02.Lilit.Swee...
WankItNow.17.11.16.Kellie.Ob...
PornstarPlatinum.18.10.03.Al...
HerBigAss.18.10.02.Valeria.R...
MomsLickTeens.18.10.03.Janna...
MetArtX.18.10.04.Arya.Red.De...
KarupsOW.18.10.05.Vanessa.He...
NewSensations.18.10.01.Jade....
MistressT.17.09.05.Foot.Dork...
MistressT.18.01.09.Cum.On.Yo...
MomsTeachSex.18.10.04.Emily....
PlumperPass.18.10.03.Busty.B...
MonsterCurves.18.10.05.Lela....
MistressT.18.04.18.In.Law.Ca...
PlayboyPlus.18.10.04.Anna.Ka...

3D
Detective.Dee.und.die.Legend...
Detective.Dee.und.die.Legend...
Skyscraper.3D.German.DL.AC3....
Ant-Man.and.the.Wasp.2018.3D...
Jurassic.World.Das.gefallene...
Jurassic.World.Das.gefallene...
Best.of.3D.vol.10.-.12.GERMA...
Die.Biene.Maja.2.Die.Honigsp...
Sharknado.6.The.Last.One.3D....
Solo.A.Star.Wars.Story.3D.20...
Solo.A.Star.Wars.Story.3D.20...
Die.Biene.Maja.2.Die.Honigsp...
Avengers.Infinity.War.3D.201...
Avengers.Infinity.War.3D.201...
Rampage.Big.Meets.Bigger.3D....

Old_Stuff
Species.IV.Das.Erwachen.2007...
Species.IV.Das.Erwachen.2007...
Hotel.Transsilvanien.2012.Ge...
The.Dead.2010.German.DL.1080...
The.Dead.2.India.2013.German...
Britney.Spears.Live.The.Femm...
Buffy.The.Vampire.Slayer.199...
IMAX.Ride.Around.The.World.2...
Schimanski.-.Duisburg.Ruhror...
Akte.X.S02.German.DTS.DL.108...
How.I.Met.Your.Mother.S02.Ge...
Akte.X.S01.German.DTS.DL.108...
Den.Himmel.gibts.echt.DL.108...
Vikings.S02.German.DL.1080p....
Be.Kind.Rewind.Abgedreht.200...

Filme
Sherlock.Holmes.Spiel.im.Sch...
Excalibur.1981.COMPLETE.BLUR...
The.Originals.S05.GERMAN.720...
The.Magicians.S03.GERMAN.720...
Ballers.S04.GERMAN.DUBBED.DL...
Ballers.S04.GERMAN.DUBBED.DL...
Animal.Kingdom.S03.COMPLETE....
Once.Upon.a.Time.S07.German....
Once.Upon.a.Time.S07.German....
Marvels.Agents.of.S.H.I.E.L....
Marvels.Agents.of.S.H.I.E.L....
Modern.Family.S08.GERMAN.DUB...
Modern.Family.S08.GERMAN.DUB...
Antiviral.2012.German.AC3.DL...
Lucy.2014.German.AC3D.DL.108...
Nackte.Eva.1976.German.AC3D....
Das.Unheimliche.Auge.1987.Ge...
Gestern.heute.und.morgen.Ger...
Dead.in.Tombstone.2013.Germa...
The.Hooligan.Club.Fear.and.F...
The.Hooligan.Factory.Helden....
Snaked.Fear.Wueste.des.Terro...
Anatomie.einer.Entfuehrung.2...
Sharknado.6.The.Last.One.201...

 
 
211.Cops.Under.Fire.2018.German.AC3D.DL.720p.BluRay.x264-PS

Jahr: 2018
Genre: Action, Drama
Sprache: Deutsch AC3 | Englisch DTS
Laufzeit: 1h 27mn
Bitrate: 8 191 Kbps
Format: MKV
Größe: 4.98 GiB
Release:

Beschreibung:

Mike Chandler ist ein mit allen Wassern gewaschener Cop, der den Tod seiner Frau immer noch nicht verwinden konnte. Mit seinem Schwiegersohn, der gerade erfahren hat, dass seine Frau schwanger ist, und dem Teenager Kenny, der zu einer Strafrunde mit den Cops verdonnert wurde, fährt er Streife und hält in seiner Kleinstadt ausgerechnet in dem Moment bei einer Bank, als diese von einem Trupp schwerstbewaffneter Söldner angegriffen wird. Ein ungleicher Kampf beginnt.



Complete name                            : ps-211.webaudio.72.mkv
Format                                   : Matroska
Format version                           : Version 4 / Version 2
File size                                : 4.98 GiB
Duration                                 : 1h 27mn
Overall bit rate                         : 8 191 Kbps
Encoded date                             : UTC 2018-10-09 17:58:39
Writing application                      : mkvmerge v8.0.0 ('Til The Day That I Die') 64bit
Writing library                          : libebml v1.3.1 + libmatroska v1.4.2
DURATION                                 : 01:27:04.608000000
NUMBER_OF_FRAMES                         : 163269
NUMBER_OF_BYTES                          : 146289024
_STATISTICS_WRITING_APP                  : mkvmerge v8.0.0 ('Til The Day That I Die') 64bit
_STATISTICS_WRITING_DATE_UTC             : 2018-10-09 17:58:39
_STATISTICS_TAGS                         : BPS DURATION NUMBER_OF_FRAMES NUMBER_OF_BYTES

Video
ID                                       : 1
Format                                   : AVC
Format/Info                              : Advanced Video Codec
Format profile                           : [email protected]
Format settings, CABAC                   : Yes
Format settings, ReFrames                : 9 frames
Codec ID                                 : V_MPEG4/ISO/AVC
Duration                                 : 1h 27mn
Bit rate                                 : 6 295 Kbps
Width                                    : 1 280 pixels
Height                                   : 694 pixels
Display aspect ratio                     : 1.85:1
Frame rate mode                          : Constant
Frame rate                               : 23.976 fps
Color space                              : YUV
Chroma subsampling                       : 4:2:0
Bit depth                                : 8 bits
Scan type                                : Progressive
Bits/(Pixel*Frame)                       : 0.296
Stream size                              : 3.83 GiB (77%)
Writing library                          : x264 core 155 r2867+74 66b5600 t_mod_Custom_2 [[email protected] X86_64]
Encoding settings                        : cabac=1 / ref=9 / deblock=1:-3:-3 / analyse=0x3:0x113 / me=umh / subme=10 / psy=1 / fade_compensate=0.00 / psy_rd=0.90:0.10 / mixed_ref=1 / me_range=32 / chroma_me=1 / trellis=2 / 8x8dct=1 / cqm=0 / deadzone=21,11 / fast_pskip=0 / chroma_qp_offset=-2 / threads=18 / lookahead_threads=3 / sliced_threads=0 / nr=0 / decimate=1 / interlaced=0 / bluray_compat=0 / constrained_intra=0 / fgo=0 / bframes=8 / b_pyramid=2 / b_adapt=2 / b_bias=0 / direct=3 / weightb=1 / open_gop=0 / weightp=2 / keyint=250 / keyint_min=23 / scenecut=40 / intra_refresh=0 / rc_lookahead=40 / rc=crf / mbtree=0 / crf=19.0000 / qcomp=0.70 / qpmin=0:0:0 / qpmax=69:69:69 / qpstep=4 / vbv_maxrate=30000 / vbv_bufsize=30000 / crf_max=0.0 / nal_hrd=none / filler=0 / ip_ratio=1.40 / pb_ratio=1.30 / aq=3:0.90 / aq-sensitivity=10.00 / aq-factor=1.00:1.00:1.00 / aq2=0 / aq3=2:[0.50:0.50]:[0.50:0.50]:[0.50:0.50]:[0.50:0.50] / aq3-sensitivity=10.00 / aq3-factor=[1.00:1.00]:[1.00:1.00]:[1.00:1.00] / aq3-boundary=192:64:24
Language                                 : English
Default                                  : Yes
Forced                                   : No
Matrix coefficients                      : BT.709
DURATION                                 : 01:27:04.553000000
NUMBER_OF_FRAMES                         : 125264
NUMBER_OF_BYTES                          : 4215817829
_STATISTICS_WRITING_APP                  : mkvmerge v8.0.0 ('Til The Day That I Die') 64bit
_STATISTICS_WRITING_DATE_UTC             : 2018-10-09 17:58:39
_STATISTICS_TAGS                         : BPS DURATION NUMBER_OF_FRAMES NUMBER_OF_BYTES

Audio #1
ID                                       : 2
Format                                   : AC-3
Format/Info                              : Audio Coding 3
Mode extension                           : CM (complete main)
Format settings, Endianness              : Big
Codec ID                                 : A_AC3
Duration                                 : 1h 27mn
Bit rate mode                            : Constant
Bit rate                                 : 224 Kbps
Channel(s)                               : 2 channels
Channel positions                        : Front: L R
Sampling rate                            : 48.0 KHz
Bit depth                                : 16 bits
Compression mode                         : Lossy
Stream size                              : 140 MiB (3%)
Language                                 : German
Default                                  : Yes
Forced                                   : Yes

Audio #2
ID                                       : 3
Format                                   : DTS
Format/Info                              : Digital Theater Systems
Mode                                     : 16
Format settings, Endianness              : Big
Codec ID                                 : A_DTS
Duration                                 : 1h 27mn
Bit rate mode                            : Constant
Bit rate                                 : 1 509 Kbps
Channel(s)                               : 6 channels
Channel positions                        : Front: L C R, Side: L R, LFE
Sampling rate                            : 48.0 KHz
Bit depth                                : 24 bits
Compression mode                         : Lossy
Stream size                              : 940 MiB (18%)
Language                                 : English
Default                                  : No
Forced                                   : No

Text
ID                                       : 4
Format                                   : UTF-8
Codec ID                                 : S_TEXT/UTF8
Codec ID/Info                            : UTF-8 Plain Text
Language                                 : English
Default                                  : No
Forced                                   : No


Download:
Share Online Share OnlineShare OnlineShare Online
 

Kommentare