Witches of East End | Mad: Best of Fussball | Discovery Pro 5.5
 


 

Filecrypt zeigt vereinzelt Files als "n/a". Die Downloads sind trotzdem komplett.

DNS SERVER AENDERNum der staatlichen Zensur zu umgehen. Sollten wir von eurem Provider geseprrt werden, nutzt den TOR BROWSER oder ändert euren DNS SERVER.

Filmwünsche können bei uns im Forum abgegeben werden

Wir Speichern Nicht




 
 
 
Top Releases
Final.Take-Off.Einsame.Entsc...
Passengers.2016.German.AC3.D...
Wolfsnaechte.2018.German.AC3...
Brawl.in.Cell.Block.99.2017....
Gravity.Diamond.Luxe.Edition...
Middle.School.The.Worst.Year...
Brawl.in.Cell.Block.99.2017....
Mindhorn.2016.German.AC3.DL....
Die.letzte.Party.deines.Lebe...
Sand.Castle.2017.German.AC3....

Cinedubs
Bad.Spies.2018.German.AC3MD....
Bad.Spies.2018.German.AC3MD....
MEG.Biss.bald.2018.German.AC...
Slender.Man.2018.GERMAN.DL.A...
Slender.Man.2018.GERMAN.DL.A...
MEG.Biss.bald.2018.German.AC...
MEG.Biss.bald.2018.German.AC...
Searching.2018.German.AC3MD....
Searching.2018.German.AC3MD....
211.Cops.Under.Fire.2018.Ger...

Neuerscheinungen 2017-18
The.Watcher.Willkommen.im.Mo...
Vielmachglas.2018.German.AC3...
The.First.Purge.2018.German....
Am.Anfang.war.das.Feuer.La.g...
Uncle.Drew.2018.German.AC3.D...
Uncle.Drew.2018.German.AC3.D...
Wildes.Herz.2017.MULTi.COMPL...
Die.Biene.Maja.2.Die.Honigsp...
Die.Biene.Maja.2.Die.Honigsp...
Wildes.Herz.2017.German.1080...

XXX
Pantyhosed4U.18.10.03.Amber....
FamilyStrokes.18.10.04.Esper...
GapeLand.18.10.02.Lilit.Swee...
WankItNow.17.11.16.Kellie.Ob...
PornstarPlatinum.18.10.03.Al...
HerBigAss.18.10.02.Valeria.R...
MomsLickTeens.18.10.03.Janna...
MetArtX.18.10.04.Arya.Red.De...
KarupsOW.18.10.05.Vanessa.He...
NewSensations.18.10.01.Jade....
MistressT.17.09.05.Foot.Dork...
MistressT.18.01.09.Cum.On.Yo...
MomsTeachSex.18.10.04.Emily....
PlumperPass.18.10.03.Busty.B...
MonsterCurves.18.10.05.Lela....
MistressT.18.04.18.In.Law.Ca...
PlayboyPlus.18.10.04.Anna.Ka...
BrazzersExxtra.18.10.05.Ashl...
MeloneChallenge.18.10.02.Wen...
PornMegaLoad.18.10.04.Cammil...

3D
Detective.Dee.und.die.Legend...
Detective.Dee.und.die.Legend...
Skyscraper.3D.German.DL.AC3....
Ant-Man.and.the.Wasp.2018.3D...
Jurassic.World.Das.gefallene...
Jurassic.World.Das.gefallene...
Best.of.3D.vol.10.-.12.GERMA...
Die.Biene.Maja.2.Die.Honigsp...
Sharknado.6.The.Last.One.3D....
Solo.A.Star.Wars.Story.3D.20...
Solo.A.Star.Wars.Story.3D.20...
Die.Biene.Maja.2.Die.Honigsp...
Avengers.Infinity.War.3D.201...
Avengers.Infinity.War.3D.201...
Rampage.Big.Meets.Bigger.3D....

Old_Stuff
Species.IV.Das.Erwachen.2007...
Species.IV.Das.Erwachen.2007...
Hotel.Transsilvanien.2012.Ge...
The.Dead.2010.German.DL.1080...
The.Dead.2.India.2013.German...
Britney.Spears.Live.The.Femm...
Buffy.The.Vampire.Slayer.199...
IMAX.Ride.Around.The.World.2...
Schimanski.-.Duisburg.Ruhror...
Akte.X.S02.German.DTS.DL.108...
How.I.Met.Your.Mother.S02.Ge...
Akte.X.S01.German.DTS.DL.108...
Den.Himmel.gibts.echt.DL.108...
Vikings.S02.German.DL.1080p....
Be.Kind.Rewind.Abgedreht.200...

Filme
Sherlock.Holmes.Spiel.im.Sch...
Excalibur.1981.COMPLETE.BLUR...
The.Originals.S05.GERMAN.720...
The.Magicians.S03.GERMAN.720...
Ballers.S04.GERMAN.DUBBED.DL...
Ballers.S04.GERMAN.DUBBED.DL...
Animal.Kingdom.S03.COMPLETE....
Once.Upon.a.Time.S07.German....
Once.Upon.a.Time.S07.German....
Marvels.Agents.of.S.H.I.E.L....
Marvels.Agents.of.S.H.I.E.L....
Modern.Family.S08.GERMAN.DUB...
Modern.Family.S08.GERMAN.DUB...
Antiviral.2012.German.AC3.DL...
Lucy.2014.German.AC3D.DL.108...
Nackte.Eva.1976.German.AC3D....
Das.Unheimliche.Auge.1987.Ge...
Gestern.heute.und.morgen.Ger...
Dead.in.Tombstone.2013.Germa...
The.Hooligan.Club.Fear.and.F...
The.Hooligan.Factory.Helden....
Snaked.Fear.Wueste.des.Terro...
Anatomie.einer.Entfuehrung.2...
Sharknado.6.The.Last.One.201...

 
 
The.Punisher.EXTENDED.GERMAN.2004.DL.1080p.BluRay.x264-GOREHOUNDS

Jahr: 2004
Genre: Action
Sprache: Deutsch DTS | Englisch DTS
Laufzeit: 2h 19mn
Bitrate: 13.0 Mbps
Format: MKV
Größe: 12.7 GiB
Release:

Beschreibung:

Nach dem grauenvollen Massaker an seiner gesamten Familie hat der ehemalige FBI-Agent Frank Castle nur noch ein Ziel: Er will die Verantwortlichen zur Rechenschaft ziehen. Ganz oben auf seiner Liste steht der Unterweltboss Howard Saint. Mit besessener Präzision bereitet Castle eine Vergeltung vor, rüstet sich mit einem üppigen Waffenarsenal aus und sondiert akribisch die Gewohnheiten seines Gegners. Castle will Howard Saint das nehmen, was ihm am wichtigsten ist: sein Geld, das Vertrauen in seine rechte Hand Quentin und nicht zuletzt die Liebe zu seiner Frau Livia. Auf seinem Weg zur Vergeltung bekommt es Castle mit neuen Feinden wie dem musikalischen Killer Harry Heck oder dem Muskelberg "The Russian" zu tun, aber auch mit neuen Freunden wie seinem verschrobenen Nachbarn Joan, Dave und Mr. Bumpo. Der gnadenlose Showdown rückt näher - aus Frank Castle wird "The Punisher"...

 

Extended Cut in HD - 15 Minuten länger - komplett in deutsch



)
Complete name                            : gh-thepunisherextended1080.mkv
Format                                   : Matroska
Format version                           : Version 2
File size                                : 12.7 GiB
Duration                                 : 2h 19mn
Overall bit rate                         : 13.0 Mbps
Encoded date                             : UTC 2018-10-10 12:27:04
Writing application                      : mkvmerge v27.0.0 ('Metropolis') 64-bit
Writing library                          : libebml v1.3.6 + libmatroska v1.4.9
DURATION                                 : 02:09:27.218000000
NUMBER_OF_FRAMES                         : 1069
NUMBER_OF_BYTES                          : 39621
_STATISTICS_WRITING_APP                  : mkvmerge v27.0.0 ('Metropolis') 64-bit
_STATISTICS_WRITING_DATE_UTC             : 2018-10-10 12:27:04
_STATISTICS_TAGS                         : BPS DURATION NUMBER_OF_FRAMES NUMBER_OF_BYTES

Video
ID                                       : 1
Format                                   : AVC
Format/Info                              : Advanced Video Codec
Format profile                           : [email protected]
Format settings, CABAC                   : Yes
Format settings, ReFrames                : 5 frames
Codec ID                                 : V_MPEG4/ISO/AVC
Duration                                 : 2h 19mn
Bit rate                                 : 9 764 Kbps
Width                                    : 1 920 pixels
Height                                   : 808 pixels
Display aspect ratio                     : 2.40:1
Frame rate mode                          : Constant
Frame rate                               : 23.976 fps
Color space                              : YUV
Chroma subsampling                       : 4:2:0
Bit depth                                : 8 bits
Scan type                                : Progressive
Bits/(Pixel*Frame)                       : 0.263
Stream size                              : 9.48 GiB (75%)
Writing library                          : x264 core 157 r2935 545de2f
Encoding settings                        : cabac=1 / ref=5 / deblock=1:-1:-1 / analyse=0x3:0x133 / me=umh / subme=8 / psy=1 / psy_rd=1.00:0.15 / mixed_ref=1 / me_range=16 / chroma_me=1 / trellis=2 / 8x8dct=1 / cqm=0 / deadzone=21,11 / fast_pskip=0 / chroma_qp_offset=-3 / threads=12 / lookahead_threads=2 / sliced_threads=0 / nr=0 / decimate=1 / interlaced=0 / bluray_compat=0 / constrained_intra=0 / bframes=3 / b_pyramid=2 / b_adapt=2 / b_bias=0 / direct=3 / weightb=1 / open_gop=0 / weightp=2 / keyint=240 / keyint_min=23 / scenecut=40 / intra_refresh=0 / rc_lookahead=50 / rc=crf / mbtree=1 / crf=20.0 / qcomp=0.60 / qpmin=0 / qpmax=69 / qpstep=4 / vbv_maxrate=62500 / vbv_bufsize=78125 / crf_max=0.0 / nal_hrd=none / filler=0 / ip_ratio=1.40 / aq=1:1.00
Default                                  : Yes
Forced                                   : No

Audio #1
ID                                       : 2
Format                                   : DTS
Format/Info                              : Digital Theater Systems
Mode                                     : 16
Format settings, Endianness              : Big
Codec ID                                 : A_DTS
Duration                                 : 2h 19mn
Bit rate mode                            : Constant
Bit rate                                 : 1 509 Kbps
Channel(s)                               : 6 channels
Channel positions                        : Front: L C R, Side: L R, LFE
Sampling rate                            : 48.0 KHz
Bit depth                                : 24 bits
Compression mode                         : Lossy
Stream size                              : 1.47 GiB (12%)
Language                                 : German
Default                                  : Yes
Forced                                   : No

Audio #2
ID                                       : 3
Format                                   : DTS
Format/Info                              : Digital Theater Systems
Mode                                     : 16
Format settings, Endianness              : Big
Codec ID                                 : A_DTS
Duration                                 : 2h 19mn
Bit rate mode                            : Constant
Bit rate                                 : 1 509 Kbps
Channel(s)                               : 6 channels
Channel positions                        : Front: L C R, Side: L R, LFE
Sampling rate                            : 48.0 KHz
Bit depth                                : 24 bits
Compression mode                         : Lossy
Stream size                              : 1.47 GiB (12%)
Language                                 : English
Default                                  : No
Forced                                   : No



Download:
Share Online Share OnlineShare OnlineShare Online
 

Kommentare