Odisea en el tiempo | Pokémon GO: Der Rauch-Trick - so fangt ihr viele seltene Pokémon Schritt für Schritt erklärt Mit dem Rauch-Trick könnt ihr in Pokémon GO viele seltene Pokémon fangen, wenn ihr das Item richtig zu benutzen wisst. Wir erklären euch den Trick Schritt für Schritt. | League of Gods
 


 

Filecrypt zeigt vereinzelt Files als "n/a". Die Downloads sind trotzdem komplett.

DNS SERVER AENDERNum der staatlichen Zensur zu umgehen. Sollten wir von eurem Provider geseprrt werden, nutzt den TOR BROWSER oder ändert euren DNS SERVER.

Filmwünsche können bei uns im Forum abgegeben werden

Wir Speichern Nicht




 
 
 
Top Releases
Passengers.2016.German.AC3.D...
Wolfsnaechte.2018.German.AC3...
Brawl.in.Cell.Block.99.2017....
Gravity.Diamond.Luxe.Edition...
Middle.School.The.Worst.Year...
Brawl.in.Cell.Block.99.2017....
Mindhorn.2016.German.AC3.DL....
Die.letzte.Party.deines.Lebe...
Sand.Castle.2017.German.AC3....
Skyscraper.2018.German.DL.AC...

Cinedubs
Bad.Spies.2018.German.AC3MD....
Bad.Spies.2018.German.AC3MD....
MEG.Biss.bald.2018.German.AC...
Slender.Man.2018.GERMAN.DL.A...
Slender.Man.2018.GERMAN.DL.A...
MEG.Biss.bald.2018.German.AC...
MEG.Biss.bald.2018.German.AC...
Searching.2018.German.AC3MD....
Searching.2018.German.AC3MD....
211.Cops.Under.Fire.2018.Ger...

Neuerscheinungen 2017-18
Vielmachglas.2018.German.AC3...
The.First.Purge.2018.German....
Am.Anfang.war.das.Feuer.La.g...
Uncle.Drew.2018.German.AC3.D...
Uncle.Drew.2018.German.AC3.D...
Wildes.Herz.2017.MULTi.COMPL...
Die.Biene.Maja.2.Die.Honigsp...
Die.Biene.Maja.2.Die.Honigsp...
Wildes.Herz.2017.German.1080...
Wildes.Herz.2017.German.1080...

XXX
Private.18.10.05.Francesca.D...
HotAndMean.18.10.02.Abella.D...
RoccoSiffredi.18.10.05.Lilu....
POVBitch.18.10.03.Kizzy.Sixx...
Housewife1On1.18.10.05.Jade....
MistressT.18.05.17.Video.Cha...
VIPArea.18.10.01.Prinzzess.P...
JapanHDV.18.10.02.Yuna.Hoshi...
Swallowed.18.09.30.Gia.Derza...
MistressT.18.03.14.Cum.On.Yo...
CherryPimps.18.10.03.Summer....
MistressT.18.03.03.MILF.Show...
MistressT.18.04.13.Sniff.Str...
Private.Specials.230.Russian...
PlayboyPlus.18.10.01.Olivia....
GloryHoleSecrets.18.10.05.Li...
Tushy.18.10.03.Eveline.Della...
DoctorAdventures.18.10.05.As...
PlumperPass.18.10.05.Harmony...
JeshByJesh.18.10.04.Gina.Val...

3D
Detective.Dee.und.die.Legend...
Detective.Dee.und.die.Legend...
Skyscraper.3D.German.DL.AC3....
Ant-Man.and.the.Wasp.2018.3D...
Jurassic.World.Das.gefallene...
Jurassic.World.Das.gefallene...
Best.of.3D.vol.10.-.12.GERMA...
Die.Biene.Maja.2.Die.Honigsp...
Sharknado.6.The.Last.One.3D....
Solo.A.Star.Wars.Story.3D.20...
Solo.A.Star.Wars.Story.3D.20...
Die.Biene.Maja.2.Die.Honigsp...
Avengers.Infinity.War.3D.201...
Avengers.Infinity.War.3D.201...
Rampage.Big.Meets.Bigger.3D....

Old_Stuff
Species.IV.Das.Erwachen.2007...
Species.IV.Das.Erwachen.2007...
Hotel.Transsilvanien.2012.Ge...
The.Dead.2010.German.DL.1080...
The.Dead.2.India.2013.German...
Britney.Spears.Live.The.Femm...
Buffy.The.Vampire.Slayer.199...
IMAX.Ride.Around.The.World.2...
Schimanski.-.Duisburg.Ruhror...
Akte.X.S02.German.DTS.DL.108...
How.I.Met.Your.Mother.S02.Ge...
Akte.X.S01.German.DTS.DL.108...
Den.Himmel.gibts.echt.DL.108...
Vikings.S02.German.DL.1080p....
Be.Kind.Rewind.Abgedreht.200...

Filme
Die.Schoene.und.die.Bestie.1...
Babylon.Berlin.S01.D01-2.GER...
Suspiria.1977.German.DL.DTSD...
Sweeney.Todd.The.Demon.Barbe...
Eine.kleine.Geschichte.ueber...
Eine.Karte.der.Klaenge.von.T...
Eine.Hochzeit.und.andere.Hin...
Wolfsnaechte.2018.German.DL....
Der.Augenzeuge.1981.German.D...
Ein.Brief.an.drei.Frauen.194...
Living.in.Oblivion.20th.Anni...
Antiviral.2012.German.DTS.DL...
Eine.Frau.unter.Einfluss.197...
Eine.fuer.4.Unterwegs.in.Sac...
Jessica.und.das.Rentier.1989...
Eine.Gefaehrliche.Affaere.19...
Blackout.Ein.Detektiv.sucht....
Der.Schwimmer.1968.German.AC...
The.Blacklist.S05D01-4.MULTi...
Undisputed.Sieg.ohne.Ruhm.20...
Requiem.for.a.Dream.2000.Ger...
The.Big.Lebowski.1998.MULTi....
Eine.Faust.geht.nach.Westen....
Eine.Frage.der.Liebe.2003.Ge...

 
 
4.Blocks.S02.GERMAN.720p.HDTV.x264-ACED

Jahr: 2018
Genre: Krimi | Drama
Sprache: Deutsch AC3
Laufzeit: 49min je Folge
Bitrate: 2100 Kbps
Format: MKV
Größe: 900 MB je Folge
Release:

Beschreibung:

Ali „Toni“ Hamady ist Anführer eines Familienclans, bei dem alle Fäden des organisierten Verbrechens in Neukölln und Umgebung zusammenlaufen. Nach langen Jahren möchte sich der Libanese aus dem illegalen Geschäft zurückziehen. Leicht wird es ihm nicht gemacht, zumal sein Schwager mit Drogen im Auto verhaftet wurde. Für die Nachfolge käme also nur sein Bruder Abbas in Frage, doch der ist unberechenbar. In diesem heiklen Moment tritt Tonis alter Freund Vince wieder in sein Leben – doch der ist verdeckter Ermittler.

 

enthaltene Folgen:

4.Blocks.S02E01.GERMAN.720p.HDTV.x264-ACED

4.Blocks.S02E02.GERMAN.720p.HDTV.x264-ACED



General
Complete name                            : 4.Blocks.S02E01.GERMAN.720p.HDTV.x264-ACED\4.Blocks.S02E01.GERMAN.720p.HDTV.x264-ACED.mkv
Format                                   : Matroska
Format version                           : Version 4 / Version 2
File size                                : 912 MiB
Duration                                 : 49mn 14s
Overall bit rate                         : 2 590 Kbps
Encoded date                             : UTC 2018-10-11 19:50:32
Writing application                      : mkvmerge v27.0.0 ('Metropolis') 64-bit
Writing library                          : Lavf57.83.100

Video
ID                                       : 1
Format                                   : AVC
Format/Info                              : Advanced Video Codec
Format profile                           : [email protected]
Format settings, CABAC                   : Yes
Format settings, ReFrames                : 5 frames
Codec ID                                 : V_MPEG4/ISO/AVC
Duration                                 : 49mn 14s
Bit rate                                 : 2 155 Kbps
Width                                    : 1 280 pixels
Height                                   : 720 pixels
Display aspect ratio                     : 16:9
Frame rate mode                          : Constant
Frame rate                               : 25.000 fps
Color space                              : YUV
Chroma subsampling                       : 4:2:0
Bit depth                                : 8 bits
Scan type                                : Progressive
Bits/(Pixel*Frame)                       : 0.094
Stream size                              : 759 MiB (83%)
Writing library                          : x264 core 155 r2901 7d0ff22
Encoding settings                        : cabac=1 / ref=5 / deblock=1:-3:-3 / analyse=0x3:0x113 / me=umh / subme=9 / psy=1 / psy_rd=1.00:0.00 / mixed_ref=1 / me_range=16 / chroma_me=1 / trellis=2 / 8x8dct=1 / cqm=0 / deadzone=21,11 / fast_pskip=0 / chroma_qp_offset=-2 / threads=18 / lookahead_threads=1 / sliced_threads=0 / nr=0 / decimate=1 / interlaced=0 / bluray_compat=0 / constrained_intra=0 / bframes=3 / b_pyramid=2 / b_adapt=1 / b_bias=0 / direct=3 / weightb=1 / open_gop=0 / weightp=2 / keyint=200 / keyint_min=20 / scenecut=40 / intra_refresh=0 / rc_lookahead=50 / rc=crf / mbtree=1 / crf=18.0 / qcomp=0.60 / qpmin=0 / qpmax=69 / qpstep=4 / ip_ratio=1.40 / aq=1:1.00
Default                                  : Yes
Forced                                   : No
DURATION                                 : 00:49:14.856000000

Audio
ID                                       : 2
Format                                   : AC-3
Format/Info                              : Audio Coding 3
Mode extension                           : CM (complete main)
Format settings, Endianness              : Big
Codec ID                                 : A_AC3
Duration                                 : 49mn 14s
Bit rate mode                            : Constant
Bit rate                                 : 384 Kbps
Channel(s)                               : 6 channels
Channel positions                        : Front: L C R, Side: L R, LFE
Sampling rate                            : 48.0 KHz
Bit depth                                : 16 bits
Compression mode                         : Lossy
Delay relative to video                  : -1s 896ms
Stream size                              : 135 MiB (15%)
Language                                 : German
Default                                  : Yes
Forced                                   : No
DURATION                                 : 00:49:14.784000000



Download:
Share-Online.biz Share-Online.bizShare-Online.bizShare-Online.biz | Rapidgator.net Rapidgator.netRapidgator.netRapidgator.net
 

Kommentare