HD-AREA wünscht Euch eine besinnliche Weihnachtszeit ;)

DNS SERVER AENDERNum der staatlichen Zensur zu umgehen. Sollten wir von eurem Provider geseprrt werden, nutzt den TOR BROWSER oder ändert euren DNS SERVER.

Filmwünsche können bei uns im Forum abgegeben werden

Wir Speichern Nicht




 
 
 
Top Releases
The.Hateful.8.2015.German.AC...
Der.Unsichtbare.Gast.2016.Ge...
BlacKkKlansman.2018.German.A...
Von.Loewen.und.Laemmern.2007...
Von.Loewen.und.Laemmern.2007...
Von.Loewen.und.Laemmern.2007...
Braven.2018.German.AC3.DL.10...
The.Last.Movie.Star.2017.DUA...
The.Infiltrator.2016.German....
The.Equalizer.2.2018.German....

Cinedubs
Johnny.English.Man.lebt.nur....
Johnny.English.Man.lebt.nur....
Phantastische.Tierwesen.Grin...
Phantastische.Tierwesen.Grin...
The.Guilty.2018.German.AC3D....
The.Guilty.2018.German.AC3D....
Aufbruch.zum.Mond.German.DL....
Aufbruch.zum.Mond.German.DL....
Night.School.2018.GERMAN.DL....
Night.School.2018.GERMAN.DL....

Neuerscheinungen 2017-18
Ben.Abenteuer.auf.der.Maeuse...
Ben.Abenteuer.auf.der.Maeuse...
Ben.Abenteuer.auf.der.Maeuse...
Ultimate.Justice.Toeten.oder...
Ultimate.Justice.Toeten.oder...
Pitchfork.2016.UNCUT.German....
Robin.Hood.Der.Rebell.2018.G...
Robin.Hood.Der.Rebell.2018.G...
Leben.und.sterben.in.L.A.To....
They.Shall.Not.Grow.Old.2018...

XXX
BangBus.18.12.12.Mazzy.Grace...
BlacksOnBlondes.18.12.11.Bar...
ATKGirlfriends.18.12.12.Arie...
DevilsFilm.18.12.10.Jasmine....
Cosmid.18.12.12.Katie.Cohen....
ClubSeventeen.18.12.11.Eveli...
Cosmid.18.12.10.Angel.Snow.F...
Beauty4K.18.12.12.Adi.XXX.10...
CzechSexCasting.18.12.12.Ter...
DontBreakMe.18.12.10.Bella.R...
ChicasLoca.18.12.10.Izzy.Lus...
ClubSeventeen.18.12.12.Mia.R...
Deep.Teen.Throat.9.XXX.1080p...
BigNaturals.18.12.11.Alice.W...
DogHouseDigital.18.12.12.Gio...
BurningAngel.18.12.11.Whitne...
Cum4K.18.12.11.Ashly.Anderso...
DaneJones.18.12.11.Akasha.Co...
CherryPimps.18.12.10.Ana.Fox...
BigButtsLikeItBig.18.12.10.M...

3D
Meg.3D.2018.MULTi.COMPLETE.B...
Meg.3D.2018.German.DL.1080p....
Gans.im.Glueck.3D.2018.MULTi...
The.Art.of.Flight.3D.2011.Ge...
The.End.Of.The.World.3D.2010...
The.First.Avenger.Civil.War....
Die.Unglaublichen.2.2018.3D....
Skyscraper.3D.2018.MULTi.COM...
Ant-Man.And.The.Wasp.3D.2018...
Ant.Man.and.the.Wasp.3D.2018...
Die.Unglaublichen.2.3D.2018....
Die.Unglaublichen.2.2018.3D....
Die.Unglaublichen.2.2018.3D....
Sharknado.6.The.Last.One.3D....
Deep.Kleine.Helden.der.Tiefs...

Old_Stuff
Akte.X.S04.German.DTS.DL.108...
Akte.X.S03.German.DTS.DL.108...
Dunkirk.1958.COMPLETE.BLURAY...
Das.Wunder.von.Manhattan.199...
The.Amazing.Spiderman.2.Rise...
Rise.of.the.Predator.2014.Ge...
Detective.Dee.und.das.Geheim...
Detective.Dee.Und.Der.Fluch....
Ghost.Rider.Spirit.of.Vengea...
Species.IV.Das.Erwachen.2007...
Species.IV.Das.Erwachen.2007...
Hotel.Transsilvanien.2012.Ge...
The.Dead.2010.German.DL.1080...
The.Dead.2.India.2013.German...
Britney.Spears.Live.The.Femm...

Filme
Angst.hat.viele.Gesichter.Th...
Ein.Kaefer.gibt.Vollgas.1972...
Clockwise.In.letzter.Sekunde...
Der.Himmel.soll.warten.1978....
Szenen.einer.Ehe.1973.German...
BlacKkKlansman.2018.German.D...
Walk.the.Line.2005.Theatrica...
Retreat.2011.German.DL.1080p...
Retribution.Die.Rueckkehr.de...
Retroactive.Gefangene.der.Ze...
Return.to.Sender.German.DL.2...
Return.To.Nuke.Em.High.Volum...
Revenge.of.the.Green.Dragons...
Retrograde.Krieg.auf.dem.Eis...
Rettet.Raffi.Der.Hamsterkrim...
Return.of.the.Killershrews.U...
Revenge.for.Jolly.2012.Germa...
Systemfehler.Wenn.Inge.tanzt...
Westworld.S02.COMPLETE.Germa...
Mars.S02.GERMAN.720p.HDTV.x2...
Fear.the.Walking.Dead.S04.CO...
Remains.of.the.Walking.Dead....
Removal.Einfach.aufgewischt....
Sharp.Objects.S01D01-2.MULTi...

 
 
Crazy.Rich.Asians.2018.1080p.BluRay.x264-GECKOS

Jahr: 2018
Genre: Komödie
Sprache: Englisch DTS
Laufzeit: 2h 0mn
Bitrate: 10.4 Mbps
Format: MKV
Größe: 8.74 GiB
Release:

Beschreibung:

Die amerikanische Professorin Rachel Chu (Constance Wu) arbeitet als Wirtschaftswissenschaftlerin an der NYU und wird von ihrem Freund Nick Young (Henry Golding) gebeten, ihn für einen Familienbesuch nach Asien zu begleiten. Sein bester Freund Colin feiert nämlich seine Hochzeit. Ihre Zusage hat allerdings unvorhergesehene Folgen, die sie ins Glamour-Leben der superreichen und berühmten Asiaten katapultiert.



Complete name                            : Crazy.Rich.Asians.2018.1080p.BluRay.x264-GECKOS.mkv
Format                                   : Matroska
Format version                           : Version 4 / Version 2
File size                                : 8.74 GiB
Duration                                 : 2h 0mn
Overall bit rate                         : 10.4 Mbps
Encoded date                             : UTC 2018-11-15 06:58:54
Writing application                      : mkvmerge v8.3.0 ('Over the Horizon') 64bit
Writing library                          : libebml v1.3.1 + libmatroska v1.4.2
DURATION                                 : 02:00:39.232000000
NUMBER_OF_FRAMES                         : 678678
NUMBER_OF_BYTES                          : 1365500136
_STATISTICS_WRITING_APP                  : mkvmerge v8.3.0 ('Over the Horizon') 64bit
_STATISTICS_WRITING_DATE_UTC             : 2018-11-15 06:58:54
_STATISTICS_TAGS                         : BPS DURATION NUMBER_OF_FRAMES NUMBER_OF_BYTES

Video
ID                                       : 1
Format                                   : AVC
Format/Info                              : Advanced Video Codec
Format profile                           : [email protected]
Format settings, CABAC                   : Yes
Format settings, ReFrames                : 5 frames
Codec ID                                 : V_MPEG4/ISO/AVC
Duration                                 : 2h 0mn
Bit rate                                 : 8 867 Kbps
Width                                    : 1 920 pixels
Height                                   : 800 pixels
Display aspect ratio                     : 2.40:1
Frame rate mode                          : Constant
Frame rate                               : 23.976 fps
Color space                              : YUV
Chroma subsampling                       : 4:2:0
Bit depth                                : 8 bits
Scan type                                : Progressive
Bits/(Pixel*Frame)                       : 0.241
Stream size                              : 7.29 GiB (83%)
Writing library                          : x264 core 157 r2935 545de2f
Encoding settings                        : cabac=1 / ref=5 / deblock=1:0:0 / analyse=0x3:0x133 / me=umh / subme=7 / psy=1 / psy_rd=1.00:0.00 / mixed_ref=1 / me_range=16 / chroma_me=1 / trellis=1 / 8x8dct=1 / cqm=0 / deadzone=21,11 / fast_pskip=0 / chroma_qp_offset=-2 / threads=25 / lookahead_threads=4 / sliced_threads=0 / nr=0 / decimate=1 / interlaced=0 / bluray_compat=0 / constrained_intra=0 / bframes=3 / b_pyramid=2 / b_adapt=1 / b_bias=0 / direct=1 / weightb=1 / open_gop=0 / weightp=2 / keyint=250 / keyint_min=23 / scenecut=40 / intra_refresh=0 / rc_lookahead=40 / rc=2pass / mbtree=1 / bitrate=8867 / ratetol=1.0 / qcomp=0.60 / qpmin=0 / qpmax=69 / qpstep=4 / cplxblur=20.0 / qblur=0.5 / ip_ratio=1.40 / aq=1:1.00
Language                                 : English
Default                                  : Yes
Forced                                   : No
DURATION                                 : 02:00:39.202000000
NUMBER_OF_FRAMES                         : 173567
NUMBER_OF_BYTES                          : 8014628278
_STATISTICS_WRITING_APP                  : mkvmerge v8.3.0 ('Over the Horizon') 64bit
_STATISTICS_WRITING_DATE_UTC             : 2018-11-15 06:58:54
_STATISTICS_TAGS                         : BPS DURATION NUMBER_OF_FRAMES NUMBER_OF_BYTES

Audio
ID                                       : 2
Format                                   : DTS
Format/Info                              : Digital Theater Systems
Mode                                     : 16
Format settings, Endianness              : Big
Codec ID                                 : A_DTS
Duration                                 : 2h 0mn
Bit rate mode                            : Constant
Bit rate                                 : 1 509 Kbps
Channel(s)                               : 6 channels
Channel positions                        : Front: L C R, Side: L R, LFE
Sampling rate                            : 48.0 KHz
Bit depth                                : 24 bits
Compression mode                         : Lossy
Stream size                              : 1.27 GiB (15%)
Language                                 : English
Default                                  : Yes
Forced                                   : No


Download:
Share Online Share OnlineShare OnlineShare Online
 

Kommentare