HD-AREA wünscht Euch eine besinnliche Weihnachtszeit ;)

DNS SERVER AENDERNum der staatlichen Zensur zu umgehen. Sollten wir von eurem Provider geseprrt werden, nutzt den TOR BROWSER oder ändert euren DNS SERVER.

Filmwünsche können bei uns im Forum abgegeben werden

Wir Speichern Nicht




 
 
 
Top Releases
The.Nun.German.DL.AC3.Dubbed...
The.Nun.German.DL.AC3.Dubbed...
Alpha.German.DL.AC3.Dubbed.1...
Alpha.German.DL.AC3.Dubbed.7...
Braven.2018.GERMAN.DL.1080p....
Braven.2018.GERMAN.720p.BluR...
Mary.und.die.Blume.der.Hexen...
Mary.und.die.Blume.der.Hexen...
Braven.2018.MULTI.COMPLETE.B...
Paradox.Kill.Zone.Bangkok.20...

Cinedubs
Gaensehaut.2.Gruseliges.Hall...
Gaensehaut.2.Gruseliges.Hall...
Unknown.User.2.Dark.Web.Germ...
Unknown.User.2.Dark.Web.Germ...
Peppermint.Angel.of.Vengeanc...
Peppermint.Angel.of.Vengeanc...
Venom.German.DL.AC3.Dubbed.1...
Venom.2018.German.AC3D.5.1.D...
Venom.2018.German.AC3D.5.1.D...
Das.krumme.Haus.2017.GERMAN....

Neuerscheinungen 2017-18
Lost.Highway.1997.MULTi.COMP...
Das.Haus.der.Vergessenen.The...
In.einem.Land.vor.unserer.Ze...
Kopfueber.in.die.Nacht.Into....
Das.Grab.der.Lygeia.The.Tomb...
Jesse.James.Mann.ohne.Gesetz...
Robur.Der.Herr.der.sieben.Ko...
Bleeder.1999.MULTi.COMPLETE....
Hoere.die.Stille.Der.Schreck...
Die.Supermonster.und.der.Wun...

XXX
JoanaBliss.18.10.03.The.Roya...
Housewives.Groupsex.Club.XXX...
ATKGirlfriends.18.12.03.Chlo...
HotAndMean.18.12.02.Kimber.W...
Housewives.Groupsex.Club.XXX...
FatManFuck.17.09.25.Emily.Ja...
JoanaBliss.18.08.22.Joana.Ro...
JoanaBliss.18.08.08.Joana.an...
JoanaBliss.18.06.27.Bikini.T...
FatManFuck.17.09.27.Lola.Rae...
JapanHDV.18.12.02.Promiscuit...
FatManFuck.17.09.28.Peaches....
IKnowThatGirl.18.12.02.Scarl...
InTheCrack.E1476.Cecilia.Sco...
Hitzefrei.18.10.19.Dana.Jayn...
Hitzefrei.18.10.17.Holly.Ban...
Hitzefrei.18.10.26.Julia.Pin...
JoanaBliss.18.09.19.Romanias...
FatManFuck.17.09.27.Little.T...
JoanaBliss.18.07.25.A.Goddes...

3D
Gans.im.Glueck.3D.2018.MULTi...
The.Art.of.Flight.3D.2011.Ge...
The.End.Of.The.World.3D.2010...
The.First.Avenger.Civil.War....
Die.Unglaublichen.2.2018.3D....
Skyscraper.3D.2018.MULTi.COM...
Ant-Man.And.The.Wasp.3D.2018...
Ant.Man.and.the.Wasp.3D.2018...
Die.Unglaublichen.2.3D.2018....
Die.Unglaublichen.2.2018.3D....
Die.Unglaublichen.2.2018.3D....
Sharknado.6.The.Last.One.3D....
Deep.Kleine.Helden.der.Tiefs...
Deep.3D.2017.MULTI.COMPLETE....
Detective.Dee.und.die.Legend...

Old_Stuff
Akte.X.S04.German.DTS.DL.108...
Akte.X.S03.German.DTS.DL.108...
Dunkirk.1958.COMPLETE.BLURAY...
Das.Wunder.von.Manhattan.199...
The.Amazing.Spiderman.2.Rise...
Rise.of.the.Predator.2014.Ge...
Detective.Dee.und.das.Geheim...
Detective.Dee.Und.Der.Fluch....
Ghost.Rider.Spirit.of.Vengea...
Species.IV.Das.Erwachen.2007...
Species.IV.Das.Erwachen.2007...
Hotel.Transsilvanien.2012.Ge...
The.Dead.2010.German.DL.1080...
The.Dead.2.India.2013.German...
Britney.Spears.Live.The.Femm...

Filme
Westworld.S02D01-3.COMPLETE....
Mars.S02.GERMAN.DL.1080p.HDT...
Venom.2018.German.AC3D.5.1.D...
The.Flash.2014.S04.COMPLETE....
The.Big.Bang.Theory.S11.COMP...
Das.Ding.aus.einer.anderen.W...
Hitch.-.Der.Date.Doktor.2005...
Die.Drachenjaeger.German.AC3...
Ruby.UNCUT.1977.German.Dubbe...
Children.of.Men.2006.German....
Unter.der.Flagge.des.Tigers....
Blendende.Weihnachten.aka.De...
Air.Force.One.1997.German.DT...
The.Big.Bang.Theory.S11.COMP...
Fear.the.Walking.Dead.S04.CO...
Im.Jahr.des.Drachen.1985.Ger...
Meerjungfrauen.kuessen.besse...
Mars.S02.GERMAN.720p.HDTV.x2...
The.Originals.S05.GERMAN.5.1...
Alpha.2018.German.AC3.2160p....
The.Nun.2018.German.AC3.2160...
Die.Konferenz.Wie.der.Holoca...
Die.Kleinen.und.die.Boesen.2...
Zombie.Strippers.2008.German...

 
 
Arrow.S06.COMPLETE.German.DL.720p.BluRay.x264-EXCiTED

Jahr: 2017
Genre: Action | Abenteuer | Krimi
Sprache: Deutsch AC3 | Englisch AC3
Laufzeit: 42min je Folge
Bitrate: 3300 Kbps
Format: MKV
Größe: 1,4 GB je Folge
Release:

Beschreibung:

Als einziger Überlebender eines Schiffbruchs führt der Playboy und Milliardärssohn Oliver Queen fünf Jahre lang ein Robinson-Crusoe-Leben auf einer einsamen Insel. Er wird zum meisterhaften Bogenschützen. Nach seiner Rettung kehrt Queen charakterlich geläutert in seine Heimatstadt Starling City zurück. Er beschließt, der steigenden Kriminalitätsrate ein Ende zu setzen. Während er tagsüber in der Öffentlichkeit seine frühere Rolle als verwöhnter Snob spielt, bekämpft er nachts mit Pfeil und Bogen in geheimer Identität Verbrechen und Korruption. Zugleich versucht er, wieder bei Ex-Freundin Laurel zu landen. Deren Vater, ein Detective, betrachtet die Ankunft eines neuen Superhelden in Starling City aber mit Skepsis.



General
Complete name                            : Arrow.S06E01.German.DL.720p.BluRay.x264-EXCiTED\arrow.s06e01.german.dl.720p.bluray.x264-excited.mkv
Format                                   : Matroska
Format version                           : Version 2
File size                                : 1.40 GiB
Duration                                 : 42mn 22s
Overall bit rate                         : 4 716 Kbps
Writing application                      : mkvmerge v4.1.1 ('Bouncin' Back') built on Jul  3 2010 22:54:08
Writing library                          : libebml v1.0.0 + libmatroska v1.0

Video
ID                                       : 1
Format                                   : AVC
Format/Info                              : Advanced Video Codec
Format profile                           : [email protected]
Format settings, CABAC                   : Yes
Format settings, ReFrames                : 5 frames
Codec ID                                 : V_MPEG4/ISO/AVC
Duration                                 : 42mn 22s
Bit rate                                 : 3 343 Kbps
Width                                    : 1 280 pixels
Height                                   : 720 pixels
Display aspect ratio                     : 16:9
Frame rate mode                          : Constant
Frame rate                               : 23.976 fps
Color space                              : YUV
Chroma subsampling                       : 4:2:0
Bit depth                                : 8 bits
Scan type                                : Progressive
Bits/(Pixel*Frame)                       : 0.151
Stream size                              : 1 013 MiB (71%)
Writing library                          : x264 core 157 r2935 545de2f
Encoding settings                        : cabac=1 / ref=5 / deblock=1:-3:-3 / analyse=0x3:0x113 / me=umh / subme=8 / psy=1 / psy_rd=1.00:0.15 / mixed_ref=1 / me_range=16 / chroma_me=1 / trellis=2 / 8x8dct=1 / cqm=0 / deadzone=21,11 / fast_pskip=0 / chroma_qp_offset=-3 / threads=24 / lookahead_threads=4 / sliced_threads=0 / nr=0 / decimate=1 / interlaced=0 / bluray_compat=0 / constrained_intra=0 / bframes=3 / b_pyramid=2 / b_adapt=2 / b_bias=0 / direct=3 / weightb=1 / open_gop=0 / weightp=2 / keyint=240 / keyint_min=23 / scenecut=40 / intra_refresh=0 / rc_lookahead=50 / rc=crf / mbtree=1 / crf=19.0 / qcomp=0.60 / qpmin=10 / qpmax=69 / qpstep=4 / ip_ratio=1.40 / aq=1:1.00
Language                                 : English
Default                                  : Yes
Forced                                   : No

Audio #1
ID                                       : 2
Format                                   : AC-3
Format/Info                              : Audio Coding 3
Mode extension                           : CM (complete main)
Format settings, Endianness              : Big
Codec ID                                 : A_AC3
Duration                                 : 42mn 22s
Bit rate mode                            : Constant
Bit rate                                 : 640 Kbps
Channel(s)                               : 6 channels
Channel positions                        : Front: L C R, Side: L R, LFE
Sampling rate                            : 48.0 KHz
Bit depth                                : 16 bits
Compression mode                         : Lossy
Stream size                              : 194 MiB (14%)
Language                                 : German
Default                                  : Yes
Forced                                   : No

Audio #2
ID                                       : 3
Format                                   : AC-3
Format/Info                              : Audio Coding 3
Mode extension                           : CM (complete main)
Format settings, Endianness              : Big
Codec ID                                 : A_AC3
Duration                                 : 42mn 22s
Bit rate mode                            : Constant
Bit rate                                 : 640 Kbps
Channel(s)                               : 6 channels
Channel positions                        : Front: L C R, Side: L R, LFE
Sampling rate                            : 48.0 KHz
Bit depth                                : 16 bits
Compression mode                         : Lossy
Stream size                              : 194 MiB (14%)
Language                                 : English
Default                                  : No
Forced                                   : No

Text
ID                                       : 4
Format                                   : UTF-8
Codec ID                                 : S_TEXT/UTF8
Codec ID/Info                            : UTF-8 Plain Text
Language                                 : German
Default                                  : Yes
Forced                                   : Yes

Menu
00:00:00.000                             : en:00:00:00.000
00:01:04.731                             : en:00:01:04.731
00:02:37.657                             : en:00:02:37.657
00:07:29.991                             : en:00:07:29.991
00:15:16.290                             : en:00:15:16.290
00:21:42.092                             : en:00:21:42.092
00:29:00.447                             : en:00:29:00.447
00:34:10.715                             : en:00:34:10.715
00:41:24.773                             : en:00:41:24.773



Download:
Share-Online.biz Share-Online.bizShare-Online.bizShare-Online.biz | Rapidgator.net Rapidgator.netRapidgator.netRapidgator.net
 

Kommentare