HD-AREA wünscht Euch eine besinnliche Weihnachtszeit ;)

DNS SERVER AENDERNum der staatlichen Zensur zu umgehen. Sollten wir von eurem Provider geseprrt werden, nutzt den TOR BROWSER oder ändert euren DNS SERVER.

Filmwünsche können bei uns im Forum abgegeben werden

Wir Speichern Nicht




 
 
 
Top Releases
The.Nun.German.DL.AC3.Dubbed...
The.Nun.German.DL.AC3.Dubbed...
Alpha.German.DL.AC3.Dubbed.1...
Alpha.German.DL.AC3.Dubbed.7...
Braven.2018.GERMAN.DL.1080p....
Braven.2018.GERMAN.720p.BluR...
Mary.und.die.Blume.der.Hexen...
Mary.und.die.Blume.der.Hexen...
Braven.2018.MULTI.COMPLETE.B...
Paradox.Kill.Zone.Bangkok.20...

Cinedubs
Gaensehaut.2.Gruseliges.Hall...
Gaensehaut.2.Gruseliges.Hall...
Unknown.User.2.Dark.Web.Germ...
Unknown.User.2.Dark.Web.Germ...
Peppermint.Angel.of.Vengeanc...
Peppermint.Angel.of.Vengeanc...
Venom.German.DL.AC3.Dubbed.1...
Venom.2018.German.AC3D.5.1.D...
Venom.2018.German.AC3D.5.1.D...
Das.krumme.Haus.2017.GERMAN....

Neuerscheinungen 2017-18
Lost.Highway.1997.MULTi.COMP...
Das.Haus.der.Vergessenen.The...
In.einem.Land.vor.unserer.Ze...
Kopfueber.in.die.Nacht.Into....
Das.Grab.der.Lygeia.The.Tomb...
Jesse.James.Mann.ohne.Gesetz...
Robur.Der.Herr.der.sieben.Ko...
Bleeder.1999.MULTi.COMPLETE....
Hoere.die.Stille.Der.Schreck...
Die.Supermonster.und.der.Wun...

XXX
JoanaBliss.18.10.03.The.Roya...
Housewives.Groupsex.Club.XXX...
ATKGirlfriends.18.12.03.Chlo...
HotAndMean.18.12.02.Kimber.W...
Housewives.Groupsex.Club.XXX...
FatManFuck.17.09.25.Emily.Ja...
JoanaBliss.18.08.22.Joana.Ro...
JoanaBliss.18.08.08.Joana.an...
JoanaBliss.18.06.27.Bikini.T...
FatManFuck.17.09.27.Lola.Rae...
JapanHDV.18.12.02.Promiscuit...
FatManFuck.17.09.28.Peaches....
IKnowThatGirl.18.12.02.Scarl...
InTheCrack.E1476.Cecilia.Sco...
Hitzefrei.18.10.19.Dana.Jayn...
Hitzefrei.18.10.17.Holly.Ban...
Hitzefrei.18.10.26.Julia.Pin...
JoanaBliss.18.09.19.Romanias...
FatManFuck.17.09.27.Little.T...
JoanaBliss.18.07.25.A.Goddes...

3D
Gans.im.Glueck.3D.2018.MULTi...
The.Art.of.Flight.3D.2011.Ge...
The.End.Of.The.World.3D.2010...
The.First.Avenger.Civil.War....
Die.Unglaublichen.2.2018.3D....
Skyscraper.3D.2018.MULTi.COM...
Ant-Man.And.The.Wasp.3D.2018...
Ant.Man.and.the.Wasp.3D.2018...
Die.Unglaublichen.2.3D.2018....
Die.Unglaublichen.2.2018.3D....
Die.Unglaublichen.2.2018.3D....
Sharknado.6.The.Last.One.3D....
Deep.Kleine.Helden.der.Tiefs...
Deep.3D.2017.MULTI.COMPLETE....
Detective.Dee.und.die.Legend...

Old_Stuff
Akte.X.S04.German.DTS.DL.108...
Akte.X.S03.German.DTS.DL.108...
Dunkirk.1958.COMPLETE.BLURAY...
Das.Wunder.von.Manhattan.199...
The.Amazing.Spiderman.2.Rise...
Rise.of.the.Predator.2014.Ge...
Detective.Dee.und.das.Geheim...
Detective.Dee.Und.Der.Fluch....
Ghost.Rider.Spirit.of.Vengea...
Species.IV.Das.Erwachen.2007...
Species.IV.Das.Erwachen.2007...
Hotel.Transsilvanien.2012.Ge...
The.Dead.2010.German.DL.1080...
The.Dead.2.India.2013.German...
Britney.Spears.Live.The.Femm...

Filme
Westworld.S02D01-3.COMPLETE....
Mars.S02.GERMAN.DL.1080p.HDT...
Venom.2018.German.AC3D.5.1.D...
The.Flash.2014.S04.COMPLETE....
The.Big.Bang.Theory.S11.COMP...
Das.Ding.aus.einer.anderen.W...
Hitch.-.Der.Date.Doktor.2005...
Die.Drachenjaeger.German.AC3...
Ruby.UNCUT.1977.German.Dubbe...
Children.of.Men.2006.German....
Unter.der.Flagge.des.Tigers....
Blendende.Weihnachten.aka.De...
Air.Force.One.1997.German.DT...
The.Big.Bang.Theory.S11.COMP...
Fear.the.Walking.Dead.S04.CO...
Im.Jahr.des.Drachen.1985.Ger...
Meerjungfrauen.kuessen.besse...
Mars.S02.GERMAN.720p.HDTV.x2...
The.Originals.S05.GERMAN.5.1...
Alpha.2018.German.AC3.2160p....
The.Nun.2018.German.AC3.2160...
Die.Konferenz.Wie.der.Holoca...
Die.Kleinen.und.die.Boesen.2...
Zombie.Strippers.2008.German...

 
 
Scandal.S06.COMPLETE.German.DD51.DL.1080p.AmazonHD.x264-TVS

Jahr: 2017
Genre: Drama | Thriller
Sprache: Deutsch AC3 | Englisch AC3
Laufzeit: 43min je Folge
Bitrate: 6800 Kbps
Format: MKV
Größe: 2,5 GB je Folge
Release:

Beschreibung:

Olivia Pope (Kerry Washington) ist eine professionelle Problemlöserin, die früher als Medienberaterin im Weißen Haus gearbeitet hat. Nun hat sie sich selbstständig gemacht und bereinigt unangenehme Situationen, bevor diese sich zu einem Skandal ausweiten. Sie arbeitet für mächtige Auftraggeber mit Geld und Macht. Sogar der Präsident soll schon einmal zu ihren Kunden gezählt haben. Als „Gladiatoren in Anzügen“ lösen Olivia und ihr Team in jeder Episode einen besonders kniffligen Fall. Dabei vernachlässigen sie jedoch bisweilen ihre eigenen persönlichen Probleme, die nach und nach zum Vorschein kommen.



General
Complete name                            : Scandal.S06E01.Attentat.German.DD51.DL.1080p.AmazonHD.x264-TVS\tvs-scandal-dd51-dl-18p-azhd-x264-601.mkv
Format                                   : Matroska
Format version                           : Version 4 / Version 2
File size                                : 2.51 GiB
Duration                                 : 43mn 35s
Overall bit rate                         : 8 243 Kbps
Encoded date                             : UTC 2018-12-04 16:31:12
Writing application                      : mkvmerge v26.0.0 ('In The Game') 64-bit
Writing library                          : libebml v1.3.6 + libmatroska v1.4.9
DURATION                                 : 00:43:00.164000000
NUMBER_OF_FRAMES                         : 976
NUMBER_OF_BYTES                          : 29908
_STATISTICS_WRITING_APP                  : mkvmerge v26.0.0 ('In The Game') 64-bit
_STATISTICS_WRITING_DATE_UTC             : 2018-12-04 16:31:12
_STATISTICS_TAGS                         : BPS DURATION NUMBER_OF_FRAMES NUMBER_OF_BYTES

Video
ID                                       : 1
Format                                   : AVC
Format/Info                              : Advanced Video Codec
Format profile                           : [email protected]
Format settings, CABAC                   : Yes
Format settings, ReFrames                : 4 frames
Codec ID                                 : V_MPEG4/ISO/AVC
Duration                                 : 43mn 35s
Bit rate                                 : 6 799 Kbps
Width                                    : 1 920 pixels
Height                                   : 1 080 pixels
Display aspect ratio                     : 16:9
Frame rate mode                          : Constant
Frame rate                               : 23.976 fps
Color space                              : YUV
Chroma subsampling                       : 4:2:0
Bit depth                                : 8 bits
Scan type                                : Progressive
Bits/(Pixel*Frame)                       : 0.137
Stream size                              : 2.07 GiB (82%)
Default                                  : Yes
Forced                                   : No
Color primaries                          : BT.709
Transfer characteristics                 : BT.709
Matrix coefficients                      : BT.709

Audio #1
ID                                       : 2
Format                                   : AC-3
Format/Info                              : Audio Coding 3
Mode extension                           : CM (complete main)
Format settings, Endianness              : Big
Codec ID                                 : A_AC3
Duration                                 : 43mn 35s
Bit rate mode                            : Constant
Bit rate                                 : 640 Kbps
Channel(s)                               : 6 channels
Channel positions                        : Front: L C R, Side: L R, LFE
Sampling rate                            : 48.0 KHz
Bit depth                                : 16 bits
Compression mode                         : Lossy
Stream size                              : 200 MiB (8%)
Language                                 : German
Default                                  : Yes
Forced                                   : No

Audio #2
ID                                       : 3
Format                                   : AC-3
Format/Info                              : Audio Coding 3
Mode extension                           : CM (complete main)
Format settings, Endianness              : Big
Codec ID                                 : A_AC3
Duration                                 : 43mn 35s
Bit rate mode                            : Constant
Bit rate                                 : 640 Kbps
Channel(s)                               : 6 channels
Channel positions                        : Front: L C R, Side: L R, LFE
Sampling rate                            : 48.0 KHz
Bit depth                                : 16 bits
Compression mode                         : Lossy
Stream size                              : 200 MiB (8%)
Language                                 : English
Default                                  : No
Forced                                   : No

Text #1
ID                                       : 4
Format                                   : UTF-8
Codec ID                                 : S_TEXT/UTF8
Codec ID/Info                            : UTF-8 Plain Text
Language                                 : German
Default                                  : No
Forced                                   : No

Text #2
ID                                       : 5
Format                                   : UTF-8
Codec ID                                 : S_TEXT/UTF8
Codec ID/Info                            : UTF-8 Plain Text
Language                                 : English
Default                                  : No
Forced                                   : No



Download:
Share-Online.biz Share-Online.bizShare-Online.bizShare-Online.biz | Rapidgator.net Rapidgator.netRapidgator.netRapidgator.net
 

Kommentare